<?xml version="1.0" standalone="no"?>
<!DOCTYPE svg PUBLIC "-//W3C//DTD SVG 1.1//EN" "http://www.w3.org/Graphics/SVG/1.1/DTD/svg11.dtd" >
<svg xmlns="http://www.w3.org/2000/svg" xmlns:xlink="http://www.w3.org/1999/xlink" version="1.1">
<metadata>
Created by FontForge 20150824 at Wed Aug 17 02:37:36 2016
 By Everything Fonts
Copyright (c) 2012 by Fontfabric LLC. All rights reserved.
</metadata>
<defs>
<font id="PantonW01Bold" horiz-adv-x="543" >
  <font-face 
    font-family="PantonW01Bold"
    font-weight="700"
    font-stretch="normal"
    units-per-em="1000"
    panose-1="1 0 0 0 0 0 0 0 0 0"
    ascent="800"
    descent="-200"
    x-height="518"
    cap-height="710"
    bbox="-86 -245 1159 924.25"
    underline-thickness="50"
    underline-position="-225"
    unicode-range="U+0020-2122"
  />
<missing-glyph horiz-adv-x="686" 
d="M616 34q0 -19 -7 -26.5t-27 -7.5h-473q-20 0 -27 7.5t-7 26.5v642q0 19 7 26.5t27 7.5h473q20 0 27 -7.5t7 -26.5v-642zM200 117h291v476h-291v-476z" />
    <glyph glyph-name=".notdef" horiz-adv-x="686" 
d="M616 34q0 -19 -7 -26.5t-27 -7.5h-473q-20 0 -27 7.5t-7 26.5v642q0 19 7 26.5t27 7.5h473q20 0 27 -7.5t7 -26.5v-642zM200 117h291v476h-291v-476z" />
    <glyph glyph-name=".null" horiz-adv-x="0" 
 />
    <glyph glyph-name="nonmarkingreturn" horiz-adv-x="333" 
 />
    <glyph glyph-name="glyph181" horiz-adv-x="502" 
 />
    <glyph glyph-name="glyph181" horiz-adv-x="502" 
 />
    <glyph glyph-name="space" unicode=" " horiz-adv-x="219" 
 />
    <glyph glyph-name="exclam" unicode="!" horiz-adv-x="241" 
d="M150 740q17 0 24.5 -7t6.5 -24l-14 -475q-1 -17 -7.5 -23.5t-23.5 -6.5h-31q-17 0 -23.5 6.5t-7.5 23.5l-13 475q-1 17 6.5 24t24.5 7h58zM124 130q36 0 50 -14t14 -50v-9q0 -37 -14 -50.5t-50 -13.5h-8q-36 0 -50 13.5t-14 50.5v9q0 36 14 50t50 14h8z" />
    <glyph glyph-name="quotedbl" unicode="&#x22;" horiz-adv-x="348" 
d="M147 480q-1 -17 -6.5 -21.5t-23.5 -4.5h-32q-17 0 -22.5 4.5t-5.5 21.5v203q0 17 5.5 22t22.5 5h47q17 0 23.5 -5t4.5 -22zM286 480q-2 -17 -7.5 -21.5t-22.5 -4.5h-32q-17 0 -23 4.5t-6 21.5v203q0 17 6 22t23 5h46q17 0 23.5 -5t5.5 -22z" />
    <glyph glyph-name="numbersign" unicode="#" horiz-adv-x="711" 
d="M657 502q18 0 23 -6.5t0 -23.5l-14 -48q-5 -16 -14.5 -22t-26.5 -6h-80l-36 -121h81q17 0 22.5 -6.5t0.5 -23.5l-14 -48q-5 -16 -14 -22t-27 -6h-81l-41 -138q-5 -17 -13.5 -24t-26.5 -7h-49q-33 0 -23 31l42 138h-121l-42 -138q-5 -17 -13.5 -24t-25.5 -7h-50
q-32 0 -22 31l41 138h-79q-17 0 -22.5 6.5t-0.5 23.5l14 48q5 17 14 22.5t27 5.5h79l36 121h-80q-17 0 -22.5 6.5t-0.5 23.5l14 48q5 17 14 22.5t27 5.5h79l41 135q5 17 13.5 23.5t25.5 6.5h50q17 0 22 -6.5t0 -23.5l-41 -135h121l41 135q5 17 13.5 23.5t25.5 6.5h50
q17 0 22 -6.5t0 -23.5l-40 -135h81zM276 275h121l37 121h-121z" />
    <glyph glyph-name="dollar" unicode="$" horiz-adv-x="592" 
d="M324 774q17 0 23.5 -7t6.5 -24v-49q72 -11 114 -46t70 -93q9 -18 4.5 -29t-24.5 -20l-49 -22q-17 -8 -27 -4.5t-20 22.5q-19 36 -46.5 56.5t-81.5 20.5q-64 0 -94 -19t-30 -63q0 -22 11.5 -36t31 -22t45 -12.5t53.5 -7.5q42 -4 85.5 -12t79 -28t58 -57.5t22.5 -100.5
q0 -81 -51.5 -134.5t-150.5 -67.5v-52q0 -17 -6.5 -24t-23.5 -7h-55q-17 0 -24 7t-7 24v51q-78 10 -127.5 50.5t-72.5 103.5q-7 18 -1.5 28.5t24.5 17.5l49 18q19 7 29 2.5t18 -24.5q16 -41 48 -62.5t87 -21.5q68 0 103 20.5t35 67.5q0 24 -11.5 38.5t-31 23t-45 12.5
t-54.5 7q-42 4 -85.5 13t-79.5 30t-58.5 58t-22.5 97q0 80 48.5 132t147.5 65v49q0 17 7 24t24 7h55v0z" />
    <glyph glyph-name="percent" unicode="%" horiz-adv-x="820" 
d="M32 577q0 69 42.5 109t123.5 40t123.5 -40t42.5 -109v-71q0 -69 -42.5 -108t-123.5 -39t-123.5 39t-42.5 108v71zM694 710q17 0 21 -9.5t-5 -23.5l-476 -647q-8 -10 -13.5 -16t-12 -9t-16.5 -4t-25 -1h-39q-19 0 -23 10t6 24l476 648q7 9 12.5 14.5t12 8.5t15.5 4t23 1
h44zM267 572q0 61 -69 61t-69 -61v-60q0 -61 69 -61t69 61v60zM455 202q0 69 42.5 109t123.5 40t123.5 -40t42.5 -109v-71q0 -69 -42.5 -108t-123.5 -39t-123.5 39t-42.5 108v71zM690 197q0 61 -69 61t-69 -61v-59q0 -62 69 -62t69 62v59z" />
    <glyph glyph-name="ampersand" unicode="&#x26;" horiz-adv-x="677" 
d="M104 542q0 36 12.5 69t37 58.5t60.5 40.5t84 15q39 0 73 -13.5t59 -37t39.5 -55t14.5 -68.5q0 -65 -33 -108t-100 -75l-10 -5l123 -126l62 60q20 21 41 0l40 -40q8 -10 8 -18t-11 -19l-65 -63l121 -127q27 -30 -15 -30h-71q-17 0 -26 3.5t-20 14.5l-64 65
q-32 -29 -58.5 -48t-51 -30t-49 -15.5t-52.5 -4.5q-47 0 -86.5 15.5t-68 44t-44.5 67.5t-16 86q0 37 10.5 66.5t28.5 53.5t42 42.5t51 33.5q-30 32 -48 68.5t-18 79.5zM375 550q0 30 -22 52t-55 22q-42 0 -63.5 -25t-21.5 -58q0 -26 12.5 -47.5t41.5 -51.5l36 19
q35 17 53.5 35.5t18.5 53.5zM244 314q-49 -23 -68.5 -53t-19.5 -65q0 -45 29 -73t74 -28q40 0 68.5 19t61.5 51z" />
    <glyph glyph-name="quotesingle" unicode="'" horiz-adv-x="210" 
d="M147 480q-1 -17 -6.5 -21.5t-23.5 -4.5h-32q-17 0 -22.5 4.5t-5.5 21.5v203q0 17 5.5 22t22.5 5h47q17 0 23.5 -5t4.5 -22l-13 -203v0z" />
    <glyph glyph-name="parenleft" unicode="(" horiz-adv-x="287" 
d="M54 610q0 49 9.5 88t27.5 68.5t44.5 51t60.5 37.5q17 8 25.5 3t16.5 -22l22 -43q7 -17 3 -25t-20 -17q-36 -18 -55.5 -47t-19.5 -85v-528q0 -56 19.5 -85t55.5 -47q16 -9 20.5 -17.5t-3.5 -24.5l-22 -43q-8 -17 -16.5 -22t-25.5 3q-68 31 -105 88.5t-37 156.5v510v0z" />
    <glyph glyph-name="parenright" unicode=")" horiz-adv-x="287" 
d="M48 836q8 17 17 22t25 -3q69 -32 105.5 -89t36.5 -156v-510q0 -99 -36.5 -156.5t-105.5 -88.5q-16 -8 -25 -3t-17 22l-21 43q-7 17 -3 25t20 17q36 18 55.5 47t19.5 85v528q0 56 -19.5 85t-55.5 47q-16 9 -20 17t3 25l21 43v0z" />
    <glyph glyph-name="asterisk" unicode="*" horiz-adv-x="363" 
d="M199 673q22 0 16 -19l-11 -87l79 38q11 5 16 3t9 -13l10 -32q6 -21 -14 -22l-86 -16l60 -63q15 -15 -2 -26l-27 -20q-18 -12 -26 6l-41 75l-41 -75q-8 -18 -26 -7l-27 21q-18 12 -2 26l61 63l-86 16q-20 3 -14 22l10 32q5 11 10 13t15 -3l78 -38l-11 87q-4 19 16 19h34v0
z" />
    <glyph glyph-name="plus" unicode="+" 
d="M474 382q19 0 26.5 -7.5t7.5 -26.5v-41q0 -19 -7.5 -26.5t-26.5 -7.5h-148v-148q0 -19 -7.5 -26.5t-27.5 -7.5h-40q-19 0 -26.5 7.5t-7.5 26.5v148h-147q-20 0 -27 7.5t-7 26.5v41q0 19 7 26.5t27 7.5h147v147q0 19 7.5 26.5t26.5 7.5h40q20 0 27.5 -7.5t7.5 -26.5v-147
h148v0z" />
    <glyph glyph-name="comma" unicode="," horiz-adv-x="220" 
d="M110 -91q-6 -17 -13.5 -24t-24.5 -7h-22q-14 0 -18.5 4.5t-2.5 18.5l25 186q3 21 12 28.5t29 7.5h45q44 0 31 -36l-61 -178v0z" />
    <glyph glyph-name="hyphen" unicode="-" horiz-adv-x="412" 
d="M321 321q19 0 26.5 -7.5t7.5 -26.5v-44q0 -20 -7.5 -27t-26.5 -7h-230q-20 0 -27 7t-7 27v44q0 19 7 26.5t27 7.5h230v0z" />
    <glyph glyph-name="period" unicode="." horiz-adv-x="227" 
d="M117 130q37 0 50.5 -14t13.5 -50v-9q0 -37 -13.5 -50.5t-50.5 -13.5h-7q-37 0 -50.5 13.5t-13.5 50.5v9q0 36 13.5 50t50.5 14h7v0z" />
    <glyph glyph-name="slash" unicode="/" horiz-adv-x="440" 
d="M146 -32q-7 -17 -15.5 -22.5t-25.5 -5.5h-56q-18 0 -22 7t1 21l266 715q7 17 15.5 22.5t25.5 5.5h57q17 0 21 -7t-1 -21l-266 -715v0z" />
    <glyph glyph-name="zero" unicode="0" horiz-adv-x="634" 
d="M52 484q0 55 18 99.5t51.5 76t83 48.5t112.5 17t112 -17t83 -48.5t51.5 -76t17.5 -99.5v-257q0 -56 -17.5 -100.5t-51.5 -76t-83 -48.5t-112 -17t-112.5 17t-83 48.5t-51.5 76t-18 100.5v257zM456 484q0 60 -36.5 92t-102.5 32t-102.5 -32t-36.5 -92v-257
q0 -60 36.5 -92.5t102.5 -32.5t102.5 32.5t36.5 92.5v257z" />
    <glyph glyph-name="one" unicode="1" horiz-adv-x="440" 
d="M329 710q20 0 27 -7.5t7 -26.5v-642q0 -19 -7 -26.5t-27 -7.5h-57q-20 0 -27 7.5t-7 26.5v524l-140 -78q-20 -11 -31 -7.5t-20 20.5l-25 45q-9 17 -5 26.5t21 19.5l195 112q14 8 23 11t25 3h48v0z" />
    <glyph glyph-name="two" unicode="2" horiz-adv-x="598" 
d="M50 560q15 37 38 67.5t55 52.5t74 33.5t96 11.5q57 0 102 -18.5t76.5 -49t48 -71t16.5 -84.5q0 -56 -15.5 -97t-49 -73t-86.5 -59.5t-128 -57.5q-16 -6 -33.5 -13t-32.5 -16t-25 -21.5t-10 -29.5v-18h334q19 0 26.5 -7.5t7.5 -26.5v-49q0 -19 -7.5 -26.5t-26.5 -7.5h-431
q-19 0 -26.5 7.5t-7.5 26.5v75q0 51 17 86.5t44.5 60.5t63 42t72.5 32q34 13 67 27t58.5 32.5t41 44t15.5 62.5q0 46 -31.5 79t-84.5 33q-54 0 -86 -22t-52 -67q-8 -19 -17 -23.5t-27 1.5l-54 20q-18 7 -23.5 16.5t1.5 26.5z" />
    <glyph glyph-name="three" unicode="3" horiz-adv-x="613" 
d="M547 522q0 -50 -18.5 -89t-59.5 -62q54 -24 77.5 -68.5t23.5 -100.5q0 -48 -15.5 -88t-47.5 -68.5t-80.5 -44.5t-113.5 -16q-114 0 -178 43.5t-93 124.5q-6 18 -1 27.5t23 16.5l54 19q18 7 27 2t17 -23q8 -23 19 -40.5t28.5 -29t42.5 -17.5t61 -6q66 0 96 27t30 75
q0 100 -104 100h-104q-20 0 -27 7t-7 27v45q0 20 7 27t27 7h86q48 0 76.5 25t28.5 69q0 97 -112 97q-34 0 -57.5 -5.5t-39.5 -17t-26.5 -29t-18.5 -40.5q-8 -19 -16.5 -22.5t-27.5 1.5l-54 19q-18 7 -23 16.5t1 27.5q29 81 90 124t174 43q114 0 174.5 -54t60.5 -149z" />
    <glyph glyph-name="four" unicode="4" horiz-adv-x="631" 
d="M572 276q20 0 27 -7.5t7 -26.5v-43q0 -20 -7 -27t-27 -7h-69v-131q0 -19 -7 -26.5t-27 -7.5h-49q-19 0 -26.5 7.5t-7.5 26.5v131h-330q-19 0 -26.5 7t-7.5 27v36q0 17 2 24t10 17l332 412q12 14 21.5 19t26.5 5h55q20 0 27 -7t7 -27v-402h69zM169 276h217v268z" />
    <glyph glyph-name="five" unicode="5" horiz-adv-x="596" 
d="M496 710q20 0 27 -7.5t7 -26.5v-49q0 -19 -7 -26.5t-27 -7.5h-286l-15 -147h121q62 0 107.5 -18t75.5 -48.5t45 -71.5t15 -87q0 -48 -16.5 -91t-49 -75t-79 -51t-106.5 -19q-113 0 -177.5 42t-93.5 121q-7 18 -2 27.5t23 16.5l55 19q18 7 27 2.5t16 -23.5
q17 -44 51.5 -66t99.5 -22q53 0 86.5 31t33.5 88q0 51 -32.5 80t-85.5 29h-211q-23 0 -30.5 9.5t-5.5 30.5l30 291q3 28 14.5 38.5t40.5 10.5h349v0z" />
    <glyph glyph-name="six" unicode="6" horiz-adv-x="634" 
d="M177 423q20 5 58 12t96 7q133 0 196 -57.5t63 -170.5q0 -53 -18.5 -95.5t-53 -72t-84.5 -45.5t-113 -16q-133 0 -201.5 70t-68.5 191v218q0 123 68.5 192t201.5 69q103 0 166 -41t92 -117q8 -18 2.5 -27t-23.5 -17l-53 -19q-18 -8 -26.5 -3t-16.5 24q-17 41 -51 62
t-90 21q-71 0 -107.5 -36t-36.5 -107v-42zM177 245q0 -70 36 -106.5t108 -36.5q70 0 107 28.5t37 83.5t-32.5 83t-110.5 28q-63 0 -98.5 -9t-46.5 -14v-57z" />
    <glyph glyph-name="seven" unicode="7" horiz-adv-x="539" 
d="M489 710q20 0 27 -7.5t7 -26.5v-35q0 -15 -2 -24t-8 -24l-253 -563q-8 -20 -19.5 -25t-43.5 -5h-55q-19 0 -22 9t5 25l254 559h-322q-19 0 -26.5 7.5t-7.5 26.5v49q0 19 7.5 26.5t26.5 7.5h432v0z" />
    <glyph glyph-name="eight" unicode="8" horiz-adv-x="627" 
d="M65 525q0 96 66 148t182 52q123 0 186.5 -49t63.5 -141q0 -35 -10 -61t-25 -46t-33 -33.5t-34 -22.5q26 -12 48.5 -27t39.5 -36.5t26.5 -49.5t9.5 -65q0 -46 -15 -84.5t-48 -66t-84.5 -43t-124.5 -15.5t-124.5 13.5t-84 39t-47.5 61t-15 79.5q0 38 12.5 67t31 50
t39.5 35.5t39 23.5q-43 25 -71 65t-28 106zM441 523q0 47 -33.5 70t-93.5 23t-91.5 -23t-31.5 -70q0 -25 9 -41.5t25 -28.5t38 -19.5t48 -14.5l40 -10q12 5 28 13.5t29.5 22t23 32.5t9.5 46zM454 192q0 32 -15 51.5t-40.5 31.5t-58.5 19.5t-70 16.5q-12 -4 -29.5 -12
t-33 -22t-27 -35t-11.5 -51q0 -46 32.5 -71.5t112.5 -25.5q79 0 109.5 26t30.5 72z" />
    <glyph glyph-name="nine" unicode="9" horiz-adv-x="634" 
d="M457 287q-20 -5 -58 -12t-96 -7q-133 0 -196 57.5t-63 170.5q0 53 18.5 95.5t53 72t84.5 45.5t113 16q133 0 201 -70t68 -191v-218q0 -123 -68.5 -192t-200.5 -69q-104 0 -167 41t-92 117q-7 18 -1.5 27t23.5 17l53 19q18 8 26.5 3t16.5 -24q17 -41 51 -62t90 -21
q71 0 107.5 36t36.5 107v42zM457 465q0 70 -36.5 106.5t-107.5 36.5q-70 0 -107 -28.5t-37 -83.5t32.5 -83t110.5 -28q63 0 98.5 9t46.5 14v57z" />
    <glyph glyph-name="colon" unicode=":" horiz-adv-x="249" 
d="M128 496q37 0 50.5 -13.5t13.5 -50.5v-9q0 -36 -13.5 -50t-50.5 -14h-7q-36 0 -50 13.5t-14 50.5v9q0 37 14 50.5t50 13.5h7zM128 130q37 0 50.5 -14t13.5 -50v-9q0 -37 -13.5 -50.5t-50.5 -13.5h-7q-36 0 -50 13.5t-14 50.5v9q0 36 14 50t50 14h7z" />
    <glyph glyph-name="semicolon" unicode=";" horiz-adv-x="261" 
d="M142 496q37 0 50.5 -13.5t13.5 -50.5v-9q0 -36 -13.5 -50t-50.5 -14h-7q-36 0 -50 13.5t-14 50.5v9q0 37 14 50.5t50 13.5h7zM127 -91q-6 -17 -14 -24t-25 -7h-21q-15 0 -19.5 4.5t-2.5 18.5l26 186q2 21 11 28.5t29 7.5h45q24 0 31 -9t1 -27z" />
    <glyph glyph-name="less" unicode="&#x3c;" horiz-adv-x="483" 
d="M393 568q20 11 28 4t8 -30v-43q0 -28 -6.5 -37t-24.5 -19l-224 -113v-5l223 -111q9 -5 15.5 -9t10 -9.5t5 -14.5t1.5 -23v-48q0 -23 -8 -30t-28 4l-337 184q-15 8 -21 16.5t-6 25.5v32q0 17 6 26t21 17l337 183v0z" />
    <glyph glyph-name="equal" unicode="=" horiz-adv-x="588" 
d="M496 482q19 0 26.5 -7.5t7.5 -27.5v-44q0 -20 -7.5 -27t-26.5 -7h-404q-20 0 -27 7t-7 27v44q0 20 7 27.5t27 7.5h404zM496 284q19 0 26.5 -7t7.5 -27v-44q0 -20 -7.5 -27t-26.5 -7h-404q-20 0 -27 7t-7 27v44q0 20 7 27t27 7h404z" />
    <glyph glyph-name="greater" unicode="&#x3e;" horiz-adv-x="483" 
d="M54 543q0 23 8 29.5t28 -4.5l336 -183q16 -8 22 -16.5t6 -25.5v-32q0 -18 -6 -26.5t-22 -16.5l-336 -183q-20 -11 -28 -4t-8 30v43q0 28 6.5 37t24.5 18l224 113v6l-223 111q-9 4 -15.5 8t-10 10t-5 15t-1.5 23v48v0z" />
    <glyph glyph-name="question" unicode="?" horiz-adv-x="569" 
d="M31 574q14 37 36.5 67t54 52t74 34t96.5 12q58 0 104 -16.5t77.5 -44.5t48 -65.5t16.5 -80.5q0 -56 -16.5 -93t-41 -62t-53.5 -41.5t-53 -31.5q-26 -17 -44.5 -36t-18.5 -51q0 -19 -7 -25.5t-25 -6.5h-40q-18 0 -25 6.5t-7 25.5q0 36 8 61.5t21.5 45t31 34t35.5 26.5
q20 13 40 25.5t35.5 28t25.5 37t10 52.5q0 45 -31 73.5t-94 28.5q-62 0 -94 -25t-52 -69q-8 -19 -16.5 -23.5t-26.5 2.5l-48 17q-18 6 -23.5 15.5t2.5 27.5zM264 130q36 0 50 -14t14 -50v-9q0 -37 -14 -50.5t-50 -13.5h-8q-36 0 -50 13.5t-14 50.5v9q0 36 14 50t50 14h8z
" />
    <glyph glyph-name="at" unicode="@" horiz-adv-x="902" 
d="M44 330q0 90 26 162.5t77.5 124.5t127 80t174.5 28q100 0 176 -28.5t127 -80t77 -124.5t26 -162v-75q0 -52 -13.5 -92t-37 -67t-54.5 -41t-66 -14q-19 0 -31.5 2.5t-21.5 7.5t-16.5 12t-16.5 16q-32 -11 -76.5 -19t-100.5 -8q-91 0 -133.5 44t-42.5 124v144
q0 79 42.5 123.5t133.5 44.5q65 0 112 -9.5t73 -20.5q20 -8 26.5 -17.5t6.5 -29.5v-289q0 -23 15 -31.5t32 -8.5q15 0 29 6.5t25 21t17.5 39t6.5 60.5v79q0 72 -20 130t-59.5 98.5t-98.5 62t-137 21.5q-77 0 -136 -21.5t-98.5 -62t-60 -98t-20.5 -130.5v-79q0 -148 80 -226
t235 -78q30 0 62.5 3t62.5 7t54 8t38 7q17 3 17 -11v-44q0 -13 -4 -18t-14 -8q-20 -5 -75.5 -15t-140.5 -10q-99 0 -174.5 26.5t-127 76.5t-77.5 122t-26 162v75zM533 432q-17 5 -44 8t-54 3q-50 0 -71.5 -20t-21.5 -62v-139q0 -42 21.5 -61.5t71.5 -19.5q34 0 63 5t44 10
v263q0 8 -9 13z" />
    <glyph glyph-name="A" unicode="A" horiz-adv-x="658" 
d="M647 33q12 -33 -23 -33h-52q-32 0 -44 6t-18 24l-46 129h-276l-47 -129q-6 -18 -18 -24t-44 -6h-46q-35 0 -23 33l250 650q7 17 16 22.5t26 5.5h53q17 0 26.5 -5t15.5 -22zM353 473q-8 23 -12.5 45t-7 39t-3.5 27.5l-1 10.5h-7l-0.5 -10.5t-2.5 -27.5t-6.5 -38.5
t-12.5 -44.5l-77 -212h206z" />
    <glyph glyph-name="B" unicode="B" horiz-adv-x="650" 
d="M381 710q97 0 151 -48t54 -139q0 -106 -76 -151v-4q49 -17 75.5 -61t26.5 -112q0 -47 -16.5 -83.5t-46.5 -61.5t-71.5 -37.5t-90.5 -12.5h-283q-20 0 -27.5 7.5t-7.5 26.5v642q0 19 7.5 26.5t27.5 7.5h277zM458 505q0 88 -92 88h-171v-176h171q45 0 68.5 21.5t23.5 66.5z
M479 209q0 94 -95 94h-189v-186h189q95 0 95 92z" />
    <glyph glyph-name="C" unicode="C" horiz-adv-x="640" 
d="M49 465q0 120 74 190t212 70q111 0 177 -43t95 -124q7 -18 2 -27.5t-23 -16.5l-55 -19q-18 -5 -27 -1.5t-16 22.5q-17 46 -53.5 69t-99.5 23q-78 0 -119 -36.5t-41 -105.5v-221q0 -69 41 -106t119 -37q63 0 99.5 23.5t53.5 69.5q8 19 17 23.5t27 -2.5l54 -19
q18 -7 23 -16.5t-1 -27.5q-29 -81 -95 -124.5t-178 -43.5q-139 0 -212.5 70t-73.5 191v219v0z" />
    <glyph glyph-name="D" unicode="D" horiz-adv-x="666" 
d="M328 710q70 0 124 -18.5t91 -52.5t56 -83t19 -110v-182q0 -61 -19 -110t-56 -83t-91 -52.5t-124 -18.5h-224q-20 0 -27.5 7.5t-7.5 26.5v642q0 19 7.5 26.5t27.5 7.5h224zM493 447q0 72 -42.5 109t-121.5 37h-134v-476h134q79 0 121.5 37t42.5 109v184z" />
    <glyph glyph-name="E" unicode="E" horiz-adv-x="579" 
d="M501 710q20 0 27.5 -7.5t7.5 -26.5v-49q0 -19 -7.5 -26.5t-27.5 -7.5h-306v-175h259q19 0 26.5 -7.5t7.5 -26.5v-49q0 -19 -7.5 -26.5t-26.5 -7.5h-259v-184h317q20 0 27 -7.5t7 -26.5v-49q0 -19 -7 -26.5t-27 -7.5h-408q-20 0 -27.5 7.5t-7.5 26.5v642q0 19 7.5 26.5
t27.5 7.5h397v0z" />
    <glyph glyph-name="F" unicode="F" horiz-adv-x="564" 
d="M501 710q20 0 27.5 -7.5t7.5 -26.5v-49q0 -19 -7.5 -26.5t-27.5 -7.5h-306v-184h257q20 0 27.5 -7.5t7.5 -26.5v-49q0 -20 -7.5 -27t-27.5 -7h-257v-258q0 -19 -7.5 -26.5t-26.5 -7.5h-57q-20 0 -27.5 7.5t-7.5 26.5v642q0 19 7.5 26.5t27.5 7.5h397v0z" />
    <glyph glyph-name="G" unicode="G" horiz-adv-x="662" 
d="M586 389q20 0 27 -7t7 -27v-134q0 -51 -19 -94.5t-55 -75t-89 -49t-122 -17.5q-139 0 -212.5 70t-73.5 191v219q0 120 74 190t212 70q111 0 177 -43t95 -124q7 -18 2 -27.5t-23 -16.5l-55 -19q-18 -7 -27 -2.5t-16 23.5q-17 46 -53.5 69t-99.5 23q-78 0 -119 -36.5
t-41 -105.5v-221q0 -70 41 -106.5t119 -36.5q77 0 119.5 33.5t42.5 84.5v52h-151q-19 0 -26.5 7.5t-7.5 27.5v48q0 20 7.5 27t26.5 7h240v0z" />
    <glyph glyph-name="H" unicode="H" horiz-adv-x="686" 
d="M582 710q20 0 27.5 -7.5t7.5 -26.5v-642q0 -19 -7.5 -26.5t-27.5 -7.5h-57q-19 0 -26.5 7.5t-7.5 26.5v267h-296v-267q0 -19 -7.5 -26.5t-26.5 -7.5h-57q-20 0 -27.5 7.5t-7.5 26.5v642q0 19 7.5 26.5t27.5 7.5h57q19 0 26.5 -7.5t7.5 -26.5v-258h296v258q0 19 7.5 26.5
t26.5 7.5h57v0z" />
    <glyph glyph-name="I" unicode="I" horiz-adv-x="264" 
d="M69 676q0 19 7.5 26.5t27.5 7.5h57q19 0 26.5 -7.5t7.5 -26.5v-642q0 -19 -7.5 -26.5t-26.5 -7.5h-57q-20 0 -27.5 7.5t-7.5 26.5v642v0z" />
    <glyph glyph-name="J" unicode="J" horiz-adv-x="577" 
d="M480 710q18 0 25.5 -7.5t7.5 -25.5v-443q0 -116 -64.5 -182.5t-190.5 -66.5q-100 0 -158 43.5t-84 123.5q-7 18 -2 27.5t23 16.5l55 19q17 7 26 2.5t17 -23.5q15 -45 43 -68.5t80 -23.5q129 0 129 131v444q0 18 7 25.5t27 7.5h59v0z" />
    <glyph glyph-name="K" unicode="K" horiz-adv-x="627" 
d="M609 34q8 -14 5 -24t-22 -10h-58q-32 0 -45.5 5.5t-22.5 24.5l-101 203q-10 20 -20 33.5t-23.5 21.5t-31.5 11.5t-44 3.5h-51v-269q0 -19 -7.5 -26.5t-26.5 -7.5h-57q-20 0 -27.5 7.5t-7.5 26.5v642q0 19 7.5 26.5t27.5 7.5h57q19 0 26.5 -7.5t7.5 -26.5v-259h40h13
l201 265q13 18 25.5 23t42.5 5h64q17 0 21.5 -10t-5.5 -23l-223 -285q35 -16 60.5 -44t47.5 -70l127 -244v0z" />
    <glyph glyph-name="L" unicode="L" horiz-adv-x="528" 
d="M161 710q19 0 26.5 -7.5t7.5 -26.5v-559h287q19 0 26.5 -7.5t7.5 -26.5v-49q0 -19 -7.5 -26.5t-26.5 -7.5h-378q-20 0 -27.5 7.5t-7.5 26.5v642q0 19 7.5 26.5t27.5 7.5h57v0z" />
    <glyph glyph-name="M" unicode="M" horiz-adv-x="811" 
d="M707 710q20 0 27 -7.5t7 -26.5v-642q0 -19 -7 -26.5t-27 -7.5h-51q-20 0 -27 7.5t-7 26.5v305q0 43 5.5 92t18.5 107h-7q-19 -56 -38.5 -98t-43.5 -85l-98 -173q-8 -14 -16 -19t-23 -5h-32q-16 0 -23.5 4.5t-15.5 19.5l-100 174q-13 22 -23 42t-19 41t-17.5 45t-17.5 54
h-7q12 -59 16.5 -105.5t4.5 -94.5v-304q0 -19 -7 -26.5t-27 -7.5h-48q-20 0 -27.5 7.5t-7.5 26.5v642q0 19 7.5 26.5t27.5 7.5h44q21 0 30.5 -5t17.5 -21l208 -372l208 371q9 17 17.5 22t28.5 5h49v0z" />
    <glyph glyph-name="N" unicode="N" horiz-adv-x="696" 
d="M592 710q20 0 27 -7.5t7 -26.5v-642q0 -19 -7 -26.5t-27 -7.5h-57q-13 0 -20 3.5t-13 13.5l-245 362q-18 26 -32.5 55t-25 53t-17 41t-7.5 19h-6q0 -3 3.5 -21t7.5 -46t7.5 -62t3.5 -70v-314q0 -19 -7.5 -26.5t-26.5 -7.5h-53q-20 0 -27.5 7.5t-7.5 26.5v642
q0 19 7.5 26.5t27.5 7.5h57q14 0 21 -4t12 -12l243 -360q19 -29 34 -58t25.5 -53t16.5 -40t8 -19h6q0 4 -3.5 21.5t-7.5 45t-7.5 62.5t-3.5 73v310q0 19 7.5 26.5t26.5 7.5h53v0z" />
    <glyph glyph-name="O" unicode="O" horiz-adv-x="669" 
d="M49 464q0 121 73.5 191t212.5 70q138 0 211.5 -70t73.5 -191v-218q0 -121 -73.5 -191t-211.5 -70q-139 0 -212.5 70t-73.5 191v218zM495 465q0 70 -41.5 106.5t-118.5 36.5q-78 0 -119 -36.5t-41 -106.5v-220q0 -70 41 -106.5t119 -36.5q77 0 118.5 36.5t41.5 106.5v220z
" />
    <glyph glyph-name="P" unicode="P" horiz-adv-x="632" 
d="M369 710q54 0 97.5 -16t74.5 -46t47.5 -73t16.5 -97q0 -109 -63.5 -170t-172.5 -61h-174v-213q0 -19 -7.5 -26.5t-26.5 -7.5h-57q-20 0 -27.5 7.5t-7.5 26.5v642q0 19 7.5 26.5t27.5 7.5h265zM357 364q55 0 85.5 30t30.5 84t-30.5 84.5t-85.5 30.5h-162v-229h162z" />
    <glyph glyph-name="Q" unicode="Q" horiz-adv-x="683" 
d="M630 11q12 -15 11 -25.5t-15 -23.5l-38 -31q-14 -12 -25 -11t-23 15l-65 77q-57 -27 -140 -27q-139 0 -212.5 70t-73.5 191v218q0 121 73.5 191t212.5 70q138 0 211.5 -70t73.5 -191v-218q0 -100 -50 -165zM175 245q0 -70 41 -106.5t119 -36.5q77 0 118.5 36.5
t41.5 106.5v220q0 70 -41.5 106.5t-118.5 36.5q-78 0 -119 -36.5t-41 -106.5v-220z" />
    <glyph glyph-name="R" unicode="R" horiz-adv-x="651" 
d="M380 710q105 0 165 -58t60 -162q0 -78 -34.5 -129.5t-97.5 -72.5q18 -15 32 -43l110 -211q8 -14 5 -24t-22 -10h-58q-32 0 -45.5 5.5t-22.5 24.5l-84 170q-10 21 -20 34.5t-23.5 21.5t-31.5 11t-44 3h-74v-236q0 -19 -7.5 -26.5t-26.5 -7.5h-57q-20 0 -27.5 7.5
t-7.5 26.5v642q0 19 7.5 26.5t27.5 7.5h276zM473 490q0 50 -27 76.5t-78 26.5h-173v-206h173q51 0 78 26t27 77z" />
    <glyph glyph-name="S" unicode="S" horiz-adv-x="633" 
d="M43 506q0 48 17.5 88t52 69t85.5 45.5t119 16.5q107 0 167.5 -38.5t95.5 -112.5q8 -17 3.5 -27.5t-22.5 -18.5l-55 -24q-17 -8 -25.5 -4t-17.5 21q-20 40 -53.5 62t-92.5 22q-145 0 -145 -92q0 -27 14 -44t38 -27t55.5 -15t65.5 -9q44 -5 89.5 -14.5t82 -32t59.5 -61
t23 -101.5q0 -50 -18.5 -91t-55 -70.5t-89.5 -46t-122 -16.5q-58 0 -102.5 11t-77.5 32t-56.5 52t-38.5 72q-7 19 -2 28.5t23 15.5l55 20q17 6 26 1.5t17 -22.5q19 -45 58 -69t98 -24q78 0 118.5 25t40.5 79q0 26 -13 42.5t-34.5 26.5t-50.5 15.5t-60 8.5q-46 5 -94 13.5
t-87.5 29.5t-65 59.5t-25.5 104.5z" />
    <glyph glyph-name="T" unicode="T" horiz-adv-x="566" 
d="M518 710q19 0 26.5 -7.5t7.5 -26.5v-49q0 -19 -7.5 -26.5t-26.5 -7.5h-172v-559q0 -19 -7.5 -26.5t-26.5 -7.5h-58q-19 0 -26.5 7.5t-7.5 26.5v559h-172q-20 0 -27 7.5t-7 26.5v49q0 19 7 26.5t27 7.5h470v0z" />
    <glyph glyph-name="U" unicode="U" horiz-adv-x="688" 
d="M190 243q0 -67 38 -104t116 -37t116 37t38 104v433q0 19 7.5 26.5t26.5 7.5h57q20 0 27 -7.5t7 -26.5v-432q0 -59 -17.5 -107t-53 -81.5t-87.5 -52t-121 -18.5t-121.5 18.5t-87.5 52t-53 81.5t-18 107v432q0 19 7.5 26.5t26.5 7.5h58q19 0 26.5 -7.5t7.5 -26.5v-433v0z
" />
    <glyph glyph-name="V" unicode="V" horiz-adv-x="640" 
d="M606 710q35 0 22 -33l-239 -649q-7 -17 -16 -22.5t-26 -5.5h-53q-17 0 -27 5t-15 22l-240 650q-12 33 22 33h51q32 0 44 -6t18 -24l146 -426q6 -18 10.5 -36t8 -33.5t5.5 -25.5t2 -11h6q1 1 3 11l5 25t7.5 33t10.5 36l145 427q6 18 18 24t44 6h48v0z" />
    <glyph glyph-name="W" unicode="W" horiz-adv-x="901" 
d="M858 710q18 0 22.5 -8t-0.5 -25l-165 -649q-5 -18 -15 -23t-27 -5h-55q-18 0 -28 5t-14 22l-105 397q-6 24 -10.5 54t-5.5 59h-7q-1 -29 -5.5 -57.5t-11.5 -54.5l-106 -397q-5 -18 -15 -23t-27 -5h-54q-18 0 -28 5t-15 22l-164 650q-5 17 -1 25t23 8h70q21 0 31 -5.5
t14 -24.5l82 -373q3 -13 5.5 -33t4.5 -40.5t3.5 -37t2.5 -23.5h6q0 8 2 24.5t4.5 36t6 39t7.5 34.5l101 370q5 19 15.5 24.5t29.5 5.5h54q20 0 30 -5.5t15 -24.5l99 -370q4 -16 7.5 -36.5t6.5 -39.5t5 -35t2 -23h6q0 6 2 22l4.5 36t5.5 40t6 35l80 374q4 19 14 24.5t31 5.5
h61v0z" />
    <glyph glyph-name="X" unicode="X" horiz-adv-x="638" 
d="M620 35q11 -14 7 -24.5t-23 -10.5h-70q-15 0 -25 0.5t-17 3.5t-13 9t-12 17l-153 235l-147 -235q-7 -10 -12.5 -16t-12.5 -9t-16.5 -4t-24.5 -1h-65q-20 0 -23.5 10.5t6.5 24.5l220 327l-212 316q-10 12 -5.5 22t22.5 10h67q15 0 24.5 -1t16.5 -4t12.5 -8.5t12.5 -14.5
l143 -221l143 221q7 9 12.5 14.5t12 8.5t15.5 4t23 1h69q17 0 21.5 -10t-5.5 -22l-214 -315l223 -328v0z" />
    <glyph glyph-name="Y" unicode="Y" horiz-adv-x="643" 
d="M611 710q19 0 22 -10t-5 -24l-244 -396v-246q0 -19 -7.5 -26.5t-26.5 -7.5h-57q-20 0 -27 7.5t-7 26.5v248l-245 394q-8 14 -4.5 24t22.5 10h70q30 0 42.5 -4t23.5 -26l155 -270l156 270q6 11 11.5 17t13 9t17.5 3.5t25 0.5h65v0z" />
    <glyph glyph-name="Z" unicode="Z" horiz-adv-x="588" 
d="M514 710q19 0 26.5 -7.5t7.5 -26.5v-48q0 -22 -11 -36l-346 -475h329q20 0 27 -7t7 -27v-49q0 -19 -7 -26.5t-27 -7.5h-452q-19 0 -26.5 7.5t-7.5 26.5v49q0 11 3 19t9 16l345 475h-318q-19 0 -26.5 7.5t-7.5 26.5v49q0 19 7.5 26.5t26.5 7.5h441v0z" />
    <glyph glyph-name="bracketleft" unicode="[" horiz-adv-x="303" 
d="M251 856q20 0 25 -5t5 -25v-44q0 -19 -5 -24t-25 -5h-79v-795h79q20 0 25 -5t5 -25v-44q0 -20 -5 -25t-25 -5h-158q-20 0 -25.5 5.5t-5.5 25.5v940q0 20 5.5 25.5t25.5 5.5h158v0z" />
    <glyph glyph-name="backslash" unicode="\" horiz-adv-x="440" 
d="M28 682q-5 14 -1 21t21 7h57q17 0 25.5 -5.5t15.5 -22.5l266 -714q5 -14 1 -21t-21 -7h-57q-17 0 -26 5.5t-15 22.5l-266 714v0z" />
    <glyph glyph-name="bracketright" unicode="]" horiz-adv-x="303" 
d="M210 856q19 0 24.5 -5.5t5.5 -25.5v-940q0 -20 -5.5 -25.5t-24.5 -5.5h-158q-20 0 -25 5t-5 25v44q0 20 5 25t25 5h78v795h-78q-20 0 -25 5t-5 24v44q0 20 5 25t25 5h158v0z" />
    <glyph glyph-name="asciicircum" unicode="^" horiz-adv-x="588" 
d="M310 810q17 0 24 -6.5t18 -20.5l187 -227q28 -36 -18 -36h-50q-14 0 -23 1t-15 4t-11 8t-12 14l-116 147h-5l-115 -147q-8 -9 -13 -14.5t-11.5 -8t-15 -3.5t-22.5 -1h-46q-47 0 -17 36l185 227q11 14 19.5 20.5t23.5 6.5h33v0z" />
    <glyph glyph-name="underscore" unicode="_" horiz-adv-x="496" 
d="M440 0q19 0 26.5 -7.5t7.5 -26.5v-44q0 -19 -7.5 -26.5t-26.5 -7.5h-384q-20 0 -27 7.5t-7 26.5v44q0 19 7 26.5t27 7.5h384v0z" />
    <glyph glyph-name="grave" unicode="`" horiz-adv-x="257" 
d="M46 728q12 15 26.5 12.5t29.5 -10.5l147 -88q12 -7 12 -13.5t-10 -19.5l-14 -18q-7 -8 -16 -7.5t-23 5.5l-174 73q-15 6 -15 13.5t11 21.5l26 31v0z" />
    <glyph glyph-name="a" unicode="a" horiz-adv-x="519" 
d="M49 429q26 49 77.5 76.5t129.5 27.5q61 0 102.5 -15.5t66 -43t35 -65.5t10.5 -82v-259q0 -26 -7.5 -37t-28.5 -20q-28 -12 -73 -19t-107 -7q-66 0 -109.5 10.5t-68.5 31.5t-35 51t-10 69q0 45 13 76t40.5 49.5t70.5 27t103 8.5q29 0 56 -2t40 -3v28q0 47 -22 73t-78 26
q-74 0 -105 -48q-11 -16 -18.5 -19t-24.5 4l-40 17q-17 8 -21.5 18t4.5 27zM354 208q-8 0 -20.5 1t-27.5 2t-30.5 1.5t-30.5 0.5q-57 0 -76.5 -17t-19.5 -48q0 -15 3.5 -27.5t14 -21.5t29 -13.5t47.5 -4.5q38 0 62 2.5t38 5.5q6 2 8.5 4.5t2.5 9.5v105z" />
    <glyph glyph-name="b" unicode="b" horiz-adv-x="542" 
d="M142 740q17 0 23.5 -7t6.5 -24v-193q23 5 53 11t67 6q108 0 158 -52.5t50 -148.5v-135q0 -103 -55.5 -157.5t-170.5 -54.5q-61 0 -108 10.5t-73 21.5q-24 11 -30.5 21t-6.5 34v637q0 17 7 24t24 7h55zM384 329q0 48 -27.5 73t-81.5 25q-32 0 -58.5 -6t-44.5 -12v-295
q0 -4 1.5 -6.5t6.5 -4.5q34 -12 86 -12q118 0 118 109v129z" />
    <glyph glyph-name="c" unicode="c" horiz-adv-x="517" 
d="M41 328q0 96 56 150.5t174 54.5q89 0 142 -37.5t72 -93.5q6 -19 0.5 -28.5t-22.5 -16.5l-44 -14q-18 -8 -27.5 -2.5t-16.5 23.5q-12 32 -38 49.5t-71 17.5q-54 0 -81.5 -25t-27.5 -73v-148q0 -47 27.5 -72.5t81.5 -25.5q44 0 70.5 18.5t38.5 50.5q7 18 16.5 22t27.5 -2
l45 -13q17 -7 23 -16.5t-2 -28.5q-25 -64 -78.5 -98.5t-144.5 -34.5q-114 0 -167.5 55t-53.5 150v138v0z" />
    <glyph glyph-name="d" unicode="d" horiz-adv-x="542" 
d="M42 324q0 102 52 155.5t157 53.5q37 0 67.5 -4.5t51.5 -8.5v189q0 17 6.5 24t23.5 7h55q17 0 24 -7t7 -24v-637q0 -25 -8 -35t-32 -20q-30 -11 -74 -21.5t-113 -10.5q-112 0 -164.5 52.5t-52.5 149.5v137zM370 414q-17 4 -42 8.5t-55 4.5q-60 0 -87.5 -26t-27.5 -80v-130
q0 -100 112 -100q53 0 92 11q5 2 6.5 4t1.5 7v301z" />
    <glyph glyph-name="e" unicode="e" horiz-adv-x="537" 
d="M40 317q0 105 59 160.5t173 55.5q60 0 103.5 -16t72 -44t42 -66t13.5 -81v-61q0 -20 -9.5 -31.5t-35.5 -11.5h-302v-37q0 -49 29.5 -74.5t84.5 -25.5q45 0 73.5 14t44.5 39q12 17 22.5 19.5t28.5 -7.5l35 -19q34 -16 12 -50q-27 -45 -79 -70.5t-137 -25.5
q-62 0 -105.5 16t-71 44.5t-40.5 68t-13 85.5v118zM387 333q0 49 -29 75.5t-86 26.5t-86.5 -26.5t-29.5 -75.5v-22h231v22z" />
    <glyph glyph-name="f" unicode="f" horiz-adv-x="370" 
d="M331 740q18 0 25 -7t7 -25v-44q0 -18 -7 -25t-25 -7q-63 0 -88 -23.5t-25 -80.5v-10h115q17 0 23.5 -6.5t6.5 -23.5v-46q0 -17 -6.5 -24t-23.5 -7h-115v-380q0 -17 -6.5 -24t-24.5 -7h-53q-18 0 -25 7t-7 24v380h-60q-17 0 -23.5 7t-6.5 24v46q0 17 6.5 23.5t23.5 6.5h60
v10q0 104 53 157t167 55h9v0z" />
    <glyph glyph-name="g" unicode="g" horiz-adv-x="541" 
d="M41 323q0 103 55.5 156.5t170.5 53.5q61 0 108 -9.5t73 -21.5q24 -11 30.5 -21t6.5 -34v-464q0 -49 -12.5 -89.5t-39 -69t-68 -44t-100.5 -15.5q-81 0 -131 25.5t-76 70.5q-22 32 12 50l38 21q18 9 28.5 6.5t22.5 -18.5q16 -25 39.5 -38t64.5 -13q106 0 106 108v50
q-23 -6 -53.5 -12t-66.5 -6q-108 0 -158 53t-50 148v113zM360 416q-17 5 -38.5 8t-46.5 3q-60 0 -89 -26t-29 -82v-106q0 -48 27.5 -73t81.5 -25q32 0 58 4.5t45 9.5v275q0 8 -9 12z" />
    <glyph glyph-name="h" unicode="h" horiz-adv-x="555" 
d="M144 740q17 0 23.5 -7t6.5 -24v-190q7 4 41 9t79 5q108 0 158 -52.5t50 -148.5v-301q0 -17 -7 -24t-24 -7h-54q-17 0 -24 7t-7 24v298q0 98 -109 98q-37 0 -66 -5.5t-37 -9.5v-381q0 -17 -6.5 -24t-23.5 -7h-55q-17 0 -24 7t-7 24v678q0 17 7 24t24 7h55v0z" />
    <glyph glyph-name="i" unicode="i" horiz-adv-x="231" 
d="M119 712q35 0 48 -12.5t13 -47.5v-9q0 -35 -13 -48t-48 -13h-7q-35 0 -48 13t-13 48v9q0 35 13 47.5t48 12.5h7zM143 518q17 0 24 -6.5t7 -23.5v-457q0 -17 -7 -24t-24 -7h-55q-17 0 -23.5 7t-6.5 24v457q0 17 6.5 23.5t23.5 6.5h55z" />
    <glyph glyph-name="j" unicode="j" horiz-adv-x="233" 
d="M120 712q35 0 48 -12.5t13 -47.5v-9q0 -35 -13 -48t-48 -13h-7q-35 0 -48 13t-13 48v9q0 35 13 47.5t48 12.5h7zM143 518q18 0 24.5 -6.5t6.5 -23.5v-495q0 -106 -54.5 -164.5t-173.5 -58.5q-18 0 -25 7t-7 25v44q0 18 7 25t25 7q63 0 87.5 31t24.5 87v492q0 17 7 23.5
t25 6.5h53z" />
    <glyph glyph-name="k" unicode="k" horiz-adv-x="523" 
d="M499 37q11 -20 7 -28.5t-26 -8.5h-51q-26 0 -35.5 5t-17.5 23l-62 133q-12 26 -30 37.5t-50 11.5h-60v-178q0 -18 -6.5 -25t-25.5 -7h-51q-19 0 -26 7t-7 25v676q0 18 7 25t26 7h51q19 0 25.5 -7t6.5 -25v-390h45h7l136 177q12 17 23 20t37 3h49q48 0 20 -36l-151 -187
q23 -11 40 -31.5t32 -51.5l87 -175v0z" />
    <glyph glyph-name="l" unicode="l" horiz-adv-x="238" 
d="M177 31q0 -17 -7 -24t-24 -7h-54q-18 0 -24.5 7t-6.5 24v678q0 17 6.5 24t24.5 7h54q17 0 24 -7t7 -24v-678v0z" />
    <glyph glyph-name="m" unicode="m" horiz-adv-x="827" 
d="M401 500q26 11 68.5 22t107.5 11q102 0 149 -52.5t47 -146.5v-303q0 -17 -6.5 -24t-23.5 -7h-55q-17 0 -24 7t-7 24v299q0 97 -97 97q-30 0 -55 -6t-42 -12q6 -16 8.5 -35t2.5 -40v-303q0 -17 -7 -24t-24 -7h-54q-17 0 -24 7t-7 24v299q0 97 -98 97q-23 0 -42 -3t-38 -9
q-5 -2 -6.5 -5t-1.5 -7v-372q0 -17 -6.5 -24t-23.5 -7h-55q-17 0 -24 7t-7 24v411q0 24 8 35.5t31 21.5q29 12 72.5 23t109.5 11q79 0 124 -33z" />
    <glyph glyph-name="n" unicode="n" horiz-adv-x="553" 
d="M95 499q30 12 77.5 23t119.5 11q107 0 157.5 -52.5t50.5 -148.5v-301q0 -17 -7 -24t-24 -7h-55q-17 0 -23.5 7t-6.5 24v298q0 98 -109 98q-29 0 -52.5 -4t-43.5 -9q-7 -3 -7 -10v-373q0 -17 -6.5 -24t-23.5 -7h-55q-17 0 -24 7t-7 24v411q0 24 7.5 35.5t31.5 21.5z" />
    <glyph glyph-name="o" unicode="o" 
d="M41 333q0 94 59 147t171 53q113 0 172 -53t59 -147v-148q0 -94 -59 -147t-172 -53q-112 0 -171 53t-59 147v148zM386 333q0 46 -29.5 70.5t-85.5 24.5q-55 0 -84.5 -24.5t-29.5 -70.5v-148q0 -45 29.5 -70t84.5 -25q56 0 85.5 25t29.5 70v148z" />
    <glyph glyph-name="p" unicode="p" horiz-adv-x="542" 
d="M95 504q31 11 77.5 20t116.5 9q109 0 160 -52.5t51 -149.5v-137q0 -101 -54.5 -155t-168.5 -54q-31 0 -58 6.5t-47 11.5v-192q0 -17 -6.5 -24t-23.5 -7h-55q-17 0 -24 7t-7 24v636q0 24 7.5 35.5t31.5 21.5zM384 328q0 99 -112 99q-28 0 -49.5 -3t-40.5 -8
q-10 -4 -10 -13v-297q17 -5 42.5 -10t54.5 -5q60 0 87.5 26.5t27.5 80.5v130z" />
    <glyph glyph-name="q" unicode="q" horiz-adv-x="542" 
d="M268 533q60 0 107.5 -9.5t73.5 -21.5q24 -11 30.5 -21t6.5 -34v-636q0 -17 -7 -24t-24 -7h-55q-17 0 -23.5 7t-6.5 24v193q-23 -6 -53.5 -12.5t-66.5 -6.5q-108 0 -158 53t-50 148v137q0 103 55.5 156.5t170.5 53.5zM158 189q0 -48 27.5 -73t81.5 -25q31 0 57.5 5
t45.5 10v297q0 9 -11 13q-18 5 -37.5 8t-45.5 3q-60 0 -89 -26t-29 -82v-130z" />
    <glyph glyph-name="r" unicode="r" horiz-adv-x="352" 
d="M313 533q17 0 24 -6.5t7 -24.5v-44q0 -17 -7 -24t-24 -7h-36q-56 0 -95 -12q-7 -2 -8.5 -5t-1.5 -7v-372q0 -17 -6.5 -24t-23.5 -7h-55q-17 0 -24 7t-7 24v415q0 24 7.5 35.5t31.5 21.5q28 11 73.5 19.5t112.5 10.5h32z" />
    <glyph glyph-name="s" unicode="s" horiz-adv-x="504" 
d="M38 372q0 72 51 116.5t155 44.5q88 0 139 -29t75 -78q9 -17 5 -27t-21 -18l-45 -18q-17 -8 -24.5 -5t-17.5 19q-13 23 -36.5 37.5t-71.5 14.5q-49 0 -71.5 -13.5t-22.5 -40.5q0 -35 29.5 -46t87.5 -16q45 -5 82.5 -13.5t64.5 -26t42 -46.5t15 -75q0 -74 -54.5 -120.5
t-161.5 -46.5q-89 0 -144.5 31t-78.5 90q-12 31 20 42l45 14q15 5 24 1.5t17 -20.5q12 -29 39.5 -42t73.5 -13q106 0 106 59q0 35 -29.5 46.5t-90.5 17.5q-37 4 -73 11t-64.5 24.5t-46.5 47t-18 78.5z" />
    <glyph glyph-name="t" unicode="t" horiz-adv-x="389" 
d="M193 638q17 0 24 -6.5t7 -23.5v-90h114q17 0 24 -6.5t7 -23.5v-46q0 -17 -7 -24t-24 -7h-114v-201q0 -37 6 -59.5t19 -35t34.5 -16.5t53.5 -4q18 0 25 -6.5t7 -24.5v-46q0 -18 -7 -24.5t-25 -7.5q-62 -2 -105.5 8t-71 35.5t-40 68.5t-12.5 108v205h-69q-17 0 -23.5 7
t-6.5 24v46q0 17 6.5 23.5t23.5 6.5h69v90q0 17 7 23.5t24 6.5h54v0z" />
    <glyph glyph-name="u" unicode="u" horiz-adv-x="553" 
d="M466 518q17 0 24 -6.5t7 -23.5v-412q0 -23 -7.5 -34.5t-31.5 -21.5q-30 -12 -77 -23.5t-119 -11.5q-108 0 -158.5 53t-50.5 148v302q0 17 7 23.5t24 6.5h55q17 0 23.5 -6.5t6.5 -23.5v-298q0 -99 109 -99q29 0 50.5 3t41.5 9q11 4 11 17v368q0 17 7 23.5t24 6.5h54v0z
" />
    <glyph glyph-name="v" unicode="v" horiz-adv-x="515" 
d="M475 518q23 0 28.5 -7t-2.5 -28l-185 -456q-7 -17 -16 -22.5t-26 -5.5h-33q-17 0 -26.5 5.5t-15.5 22.5l-184 455q-8 22 -3 29t28 7h39q28 0 38.5 -6t16.5 -25l93 -240q7 -18 12 -36t8.5 -33.5t5.5 -26t2 -11.5h5q1 1 3 11l5 25t8 33.5t11 36.5l92 241q8 19 17.5 25
t38.5 6h40v0z" />
    <glyph glyph-name="w" unicode="w" horiz-adv-x="735" 
d="M687 518q23 0 27.5 -7t-1.5 -29l-134 -455q-5 -17 -15 -22.5t-27 -5.5h-34q-18 0 -28 5.5t-15 22.5l-73 256q-5 18 -8 36t-5.5 32t-3.5 23.5t-1 11.5h-5q0 -2 -1.5 -11.5t-3.5 -23.5t-5.5 -32t-8.5 -36l-73 -256q-5 -17 -15 -22.5t-27 -5.5h-33q-17 0 -27 5.5t-15 22.5
l-133 455q-7 22 -2.5 29t27.5 7h39q28 0 39.5 -5.5t15.5 -25.5l57 -224q3 -17 6 -37t5 -38.5t3.5 -31.5t2.5 -15h5q0 2 1.5 15t4.5 31t6.5 38.5t8.5 38.5l66 219q6 20 14.5 26t36.5 6h23q28 0 36.5 -5.5t14.5 -25.5l67 -220q6 -19 9.5 -40t6 -39t4 -30t1.5 -14h6q0 2 1 13.5
t3 28.5t5 38.5t8 42.5l55 223q5 20 16 25.5t40 5.5h33v0z" />
    <glyph glyph-name="x" unicode="x" horiz-adv-x="508" 
d="M455 518q24 0 28.5 -9t-7.5 -27l-150 -215l160 -231q13 -18 8.5 -27t-30.5 -9h-48q-13 0 -21 1t-14 4t-10.5 8t-10.5 13l-108 157l-103 -157q-11 -17 -21 -21.5t-35 -4.5h-47q-28 0 -32 9t9 27l160 230l-153 216q-11 16 -7.5 26t31.5 10h45q13 0 21.5 -1t14.5 -4t11 -8
t10 -13l99 -141l97 141q6 9 10.5 14t10 7.5t13.5 3.5t20 1h49v0z" />
    <glyph glyph-name="y" unicode="y" horiz-adv-x="555" 
d="M466 518q17 0 24 -6.5t7 -23.5v-505q0 -49 -12.5 -89.5t-39 -69t-68 -44t-100.5 -15.5q-81 0 -131 25.5t-77 70.5q-21 33 13 50l38 21q18 9 28.5 6.5t21.5 -18.5q16 -25 40 -38t65 -13q106 0 106 108v47q-23 -5 -52.5 -9.5t-66.5 -4.5q-108 0 -158.5 53t-50.5 148v277
q0 17 7 23.5t24 6.5h55q17 0 23.5 -6.5t6.5 -23.5v-273q0 -99 109 -99q32 0 57.5 4.5t45.5 9.5v358q0 17 7 23.5t24 6.5h54v0z" />
    <glyph glyph-name="z" unicode="z" horiz-adv-x="471" 
d="M411 105q17 0 23.5 -7t6.5 -24v-43q0 -17 -6.5 -24t-23.5 -7h-350q-17 0 -24 7t-7 24v43q0 12 2 17.5t9 13.5l245 308h-220q-17 0 -24 7t-7 24v44q0 17 7 23.5t24 6.5h340q17 0 23.5 -6.5t6.5 -23.5v-44q0 -11 -2 -18t-9 -15l-247 -306h233v0z" />
    <glyph glyph-name="braceleft" unicode="{" horiz-adv-x="348" 
d="M298 856q17 0 24 -7t7 -24v-43q0 -17 -7 -24t-24 -7h-47q-17 0 -25 -9.5t-8 -25.5v-237q0 -48 -20 -78.5t-51 -48.5q38 -15 54.5 -46.5t16.5 -79.5v-233q0 -16 8 -25.5t25 -9.5h47q17 0 24 -7t7 -24v-43q0 -17 -7 -24t-24 -7h-50q-79 0 -109.5 32t-30.5 101v223
q0 35 -13.5 59.5t-52.5 24.5h-7q-14 0 -19.5 7t-5.5 24v57q0 15 5 22.5t19 7.5h8q39 0 52.5 25t13.5 59v227q0 69 31 101.5t108 32.5h51v0z" />
    <glyph glyph-name="bar" unicode="|" horiz-adv-x="235" 
d="M142 856q17 0 24 -7t7 -24v-941q0 -17 -7 -24t-24 -7h-49q-17 0 -24 7t-7 24v941q0 17 7 24t24 7h49v0z" />
    <glyph glyph-name="braceright" unicode="}" horiz-adv-x="348" 
d="M102 856q77 0 107.5 -32.5t30.5 -101.5v-227q0 -34 14 -59t52 -25h8q14 0 19.5 -7.5t5.5 -22.5v-57q0 -31 -26 -31h-7q-38 0 -52 -24.5t-14 -59.5v-223q0 -69 -30.5 -101t-109.5 -32h-50q-17 0 -23.5 7t-6.5 24v43q0 17 6.5 24t23.5 7h47q17 0 25.5 9.5t8.5 25.5v233
q0 48 16 79.5t54 46.5q-31 18 -50.5 48.5t-19.5 78.5v237q0 16 -8.5 25.5t-25.5 9.5h-47q-17 0 -23.5 7t-6.5 24v43q0 17 6.5 24t23.5 7h52v0z" />
    <glyph glyph-name="asciitilde" unicode="~" horiz-adv-x="556" 
d="M67 347q25 23 55 35.5t68 12.5q29 0 50.5 -5.5t39.5 -11.5t35 -11.5t37 -5.5q19 0 34 6.5t27 16.5q15 12 23 12t22 -14l31 -29q14 -14 14.5 -24.5t-14.5 -23.5q-25 -23 -55 -36t-68 -13q-29 0 -50.5 5.5t-39.5 12t-35 12t-37 5.5q-19 0 -33.5 -6t-27.5 -17
q-15 -13 -23 -12.5t-21 13.5l-32 30q-14 13 -14.5 24t14.5 24z" />
    <glyph glyph-name="exclamdown" unicode="&#xa1;" horiz-adv-x="232" 
d="M112 388q-36 0 -50 14t-14 50v9q0 37 14 50.5t50 13.5h7q37 0 50.5 -13.5t13.5 -50.5v-9q0 -36 -13.5 -50t-50.5 -14h-7zM87 -222q-17 0 -24 6.5t-6 23.5l13 475q0 17 6.5 24t23.5 7h32q17 0 23.5 -7t7.5 -24l13 -475q1 -17 -6 -23.5t-24 -6.5h-59z" />
    <glyph glyph-name="cent" unicode="&#xa2;" horiz-adv-x="536" 
d="M471 163q17 -7 23.5 -16.5t-1.5 -28.5q-20 -51 -59 -83.5t-101 -43.5v-44q0 -17 -6.5 -24t-23.5 -7h-55q-17 0 -24 7t-7 24v42q-87 12 -128 64.5t-41 136.5v138q0 81 41 133.5t128 66.5v51q0 17 7 24t24 7h55q17 0 23.5 -7t6.5 -24v-51q66 -11 104.5 -44.5t54.5 -81.5
q6 -19 1 -28.5t-22 -16.5l-45 -14q-18 -8 -27.5 -2.5t-16.5 23.5q-12 32 -37.5 49.5t-70.5 17.5q-55 0 -82.5 -25t-27.5 -73v-148q0 -47 27.5 -72.5t82.5 -25.5q44 0 70 18.5t38 50.5q8 18 17 22t28 -2l44 -13v0z" />
    <glyph glyph-name="sterling" unicode="&#xa3;" horiz-adv-x="646" 
d="M123 515q0 42 15 80t44.5 67t72.5 46t100 17q51 0 90.5 -10.5t69.5 -30t51.5 -48t35.5 -63.5q8 -18 2.5 -27.5t-23.5 -16.5l-55 -19q-18 -7 -26 -2t-17 23q-20 41 -48 59t-75 18q-51 0 -78.5 -28.5t-27.5 -69.5v-118h219q19 0 26.5 -7.5t7.5 -26.5v-40q0 -20 -7.5 -27.5
t-26.5 -7.5h-219v-69q0 -38 -13 -63t-37 -41v-6q22 4 61.5 8.5t93.5 4.5h204q19 0 26.5 -7.5t7.5 -26.5v-49q0 -19 -7.5 -26.5t-26.5 -7.5h-489q-20 0 -26.5 7.5t-6.5 26.5v50q0 11 4 19.5t15 8.5h7q32 9 44 35.5t12 65.5v70h-45q-19 0 -26.5 7.5t-7.5 27.5v40
q0 19 7.5 26.5t26.5 7.5h45v123v0z" />
    <glyph glyph-name="currency" unicode="&#xa4;" horiz-adv-x="613" 
d="M551 175q12 -12 12 -22t-12 -22l-39 -38q-12 -12 -21.5 -12t-21.5 12l-49 49q-50 -32 -113 -32q-61 0 -114 31l-49 -49q-12 -12 -21.5 -12t-21.5 12l-39 39q-12 12 -12 21.5t12 21.5l50 50q-15 25 -23.5 53t-8.5 60q0 31 8.5 59.5t23.5 52.5l-50 50q-12 12 -12 21.5
t12 22.5l38 38q13 12 22.5 12t21.5 -12l49 -49q26 15 54.5 23.5t59.5 8.5q63 0 112 -32l49 49q13 12 22.5 12t21.5 -12l38 -38q13 -12 13 -21.5t-13 -22.5l-48 -48q32 -50 32 -114q0 -63 -31 -114zM307 459q-26 0 -48 -9.5t-38.5 -26t-26.5 -38.5t-10 -48t10 -48t26.5 -39
t38.5 -26.5t48 -9.5t48.5 9.5t39 26.5t26 39t9.5 48t-9.5 48t-26 38.5t-39 26t-48.5 9.5z" />
    <glyph glyph-name="yen" unicode="&#xa5;" horiz-adv-x="656" 
d="M608 710q18 0 21.5 -10t-4.5 -24l-190 -305h78q17 0 23.5 -6.5t6.5 -23.5v-30q0 -17 -6.5 -23.5t-23.5 -6.5h-123v-58h123q17 0 23.5 -6.5t6.5 -23.5v-30q0 -17 -6.5 -23.5t-23.5 -6.5h-122v-99q0 -19 -7.5 -26.5t-27.5 -7.5h-57q-19 0 -26.5 7.5t-7.5 26.5v99h-123
q-17 0 -23.5 6.5t-6.5 23.5v30q0 17 6.5 23.5t23.5 6.5h123v58h-123q-17 0 -23.5 6.5t-6.5 23.5v30q0 17 6.5 23.5t23.5 6.5h79l-190 305q-8 14 -4.5 24t21.5 10h62q30 0 42.5 -4t23.5 -26l155 -267l154 267q11 22 23.5 26t42.5 4h57v0z" />
    <glyph glyph-name="brokenbar" unicode="&#xa6;" horiz-adv-x="243" 
d="M146 856q17 0 24 -7t7 -24v-363q0 -17 -7 -24t-24 -7h-49q-17 0 -24 7t-7 24v363q0 17 7 24t24 7h49zM146 279q17 0 24 -7t7 -24v-363q0 -17 -7 -24t-24 -7h-49q-17 0 -24 7t-7 24v363q0 17 7 24t24 7h49z" />
    <glyph glyph-name="section" unicode="&#xa7;" horiz-adv-x="607" 
d="M58 524q0 43 15.5 80t46 64t77 42.5t109.5 15.5q94 0 151 -37t89 -108q9 -18 4.5 -29t-24.5 -20l-49 -22q-17 -8 -27 -4t-20 22q-17 38 -46 58.5t-78 20.5q-63 0 -91.5 -21t-28.5 -62q0 -21 10.5 -34.5t28.5 -21.5t41.5 -12.5t49.5 -8.5q39 -6 81 -14t77 -27t57.5 -53
t22.5 -92q0 -44 -19 -76.5t-47 -54.5q32 -19 52 -53.5t20 -94.5q0 -44 -16.5 -81t-49 -63.5t-80.5 -41.5t-112 -15q-97 0 -162.5 40t-92.5 115q-12 34 23 46l50 18q19 7 29 2.5t18 -24.5q14 -42 49 -61t86 -19q133 0 133 83q0 21 -10.5 34.5t-28.5 21t-41.5 11.5t-49.5 7
q-42 4 -87.5 10.5t-83.5 24.5t-62.5 52.5t-24.5 94.5q0 50 24 84t59 57q-32 20 -52 54.5t-20 91.5zM289 329l-28 4t-28 5q-9 -5 -19 -11.5t-18.5 -17t-14.5 -24t-6 -31.5q0 -26 12 -41t32 -23.5t46.5 -12t55.5 -6.5q14 -2 28.5 -3t28.5 -3q16 10 33.5 30t17.5 54
q0 22 -11.5 36t-31 22.5t-44.5 13t-53 8.5z" />
    <glyph glyph-name="dieresis" unicode="&#xa8;" horiz-adv-x="439" 
d="M120 709q30 0 41.5 -11.5t11.5 -40.5v-9q0 -29 -11.5 -40.5t-41.5 -11.5h-7q-30 0 -41 11.5t-11 40.5v9q0 29 11 40.5t41 11.5h7zM320 709q30 0 41.5 -11.5t11.5 -40.5v-9q0 -29 -11.5 -40.5t-41.5 -11.5h-6q-30 0 -41.5 11.5t-11.5 40.5v9q0 29 11.5 40.5t41.5 11.5h6z
" />
    <glyph glyph-name="copyright" unicode="&#xa9;" horiz-adv-x="799" 
d="M41 351q0 75 28 140.5t76.5 114t114 76.5t141.5 28q75 0 140 -28t113.5 -76.5t76 -114t27.5 -140.5t-27.5 -140.5t-76 -114t-113.5 -76.5t-140 -28q-76 0 -141.5 28t-114 77t-76.5 114t-28 140zM678 351q0 59 -21.5 110t-58.5 88.5t-88 59t-109 21.5q-60 0 -111 -21.5
t-88.5 -59t-59 -88.5t-21.5 -110t21.5 -110t59 -89t88.5 -59.5t111 -21.5q58 0 109 21.5t88 59.5t58.5 89t21.5 110zM248 402q0 65 39 102t112 37q59 0 94 -23.5t50 -66.5q5 -14 2 -20.5t-17 -11.5l-27 -10q-14 -5 -20 -1.5t-11 17.5q-8 23 -23.5 32t-47.5 9q-73 0 -73 -63
v-107q0 -31 18.5 -48t54.5 -17q56 0 71 43q5 14 12 17.5t20 -1.5l26 -10q14 -5 17.5 -12t-1.5 -20q-17 -43 -50.5 -67t-94.5 -24q-73 0 -112 37.5t-39 101.5v106z" />
    <glyph glyph-name="ordfeminine" unicode="&#xaa;" horiz-adv-x="360" 
d="M58 616q20 28 52 41t70 13q36 0 60.5 -9t39.5 -25.5t21.5 -39.5t6.5 -50v-128q0 -22 -6.5 -31t-24.5 -17q-16 -7 -41 -11t-59 -4q-38 0 -63 6.5t-40 19t-21 29.5t-6 38q0 22 6.5 39.5t21.5 29.5t40.5 18.5t63.5 6.5q13 0 23 -0.5t17 -1.5v14q0 22 -9 32t-32 10
q-18 0 -29 -7.5t-22 -17.5q-6 -5 -12.5 -7t-17.5 2l-24 13q-17 8 -20.5 16t5.5 21zM219 477q-9 1 -20 1.5t-25 0.5q-23 0 -32 -7t-9 -21q0 -16 9 -22t31 -6q18 0 28 1t12 2q4 2 5 3.5t1 6.5v41z" />
    <glyph glyph-name="guillemotleft" unicode="&#xab;" horiz-adv-x="590" 
d="M298 133q11 -11 11 -19.5t-11 -19.5l-36 -37q-11 -10 -19.5 -10.5t-19.5 10.5l-186 186q-11 11 -11 19.5t11 19.5l190 191q11 11 19.5 11t19.5 -11l34 -35q11 -11 11 -19t-11 -19l-134 -135zM535 133q11 -11 11 -19.5t-11 -19.5l-37 -37q-11 -10 -19.5 -10.5t-18.5 10.5
l-186 186q-11 11 -11 19.5t11 19.5l190 191q11 11 19.5 11t19.5 -11l34 -35q10 -11 10.5 -19t-10.5 -19l-135 -135z" />
    <glyph glyph-name="logicalnot" unicode="&#xac;" horiz-adv-x="588" 
d="M496 411q18 0 24.5 -7t6.5 -24v-210q0 -17 -6.5 -24t-24.5 -7h-53q-17 0 -24 7t-7 24v132h-329q-18 0 -24.5 7t-6.5 24v47q0 17 6.5 24t24.5 7h413v0z" />
    <glyph glyph-name="registered" unicode="&#xae;" horiz-adv-x="468" 
d="M40 516q0 40 15.5 75t42 61.5t62 42t75.5 15.5t75 -15.5t61 -42t41.5 -61.5t15.5 -75t-15.5 -75.5t-41.5 -61.5t-61 -41.5t-75 -15.5t-75.5 15.5t-62 41.5t-42 61.5t-15.5 75.5zM91 516q0 -30 11.5 -56.5t31 -46t46 -31t56.5 -11.5t56 11.5t45.5 31t30.5 46t11 56.5
t-11 56t-30.5 45.5t-45.5 31t-56 11.5t-56.5 -11.5t-46 -31t-31 -45.5t-11.5 -56zM254 613q31 0 50 -17t19 -49q0 -46 -40 -59l32 -52q12 -17 -9 -17h-22q-10 0 -13.5 2.5t-6.5 7.5l-31 54h-29v-53q0 -7 -2 -9t-10 -2h-21q-8 0 -10 2.5t-2 8.5v171q0 8 2.5 10t10.5 2h82z
M251 524q24 0 24 23t-24 23h-47v-46h47z" />
    <glyph glyph-name="macron" unicode="&#xaf;" horiz-adv-x="352" 
d="M293 697q17 0 23 -6t6 -23v-26q0 -17 -6 -23t-23 -6h-232q-17 0 -23 6t-6 23v26q0 17 7 23t22 6h232v0z" />
    <glyph glyph-name="degree" unicode="&#xb0;" horiz-adv-x="397" 
d="M362 555q0 -33 -13 -63t-35 -52.5t-52 -35.5t-63 -13q-34 0 -64 13t-52 35t-35 52t-13 64t13 64t35 52t52 34.5t64 12.5t63.5 -12.5t51.5 -34.5t35 -52t13 -64zM127 554q0 -29 21 -50t51 -21q15 0 28 5.5t22.5 15.5t15.5 23t6 27q0 29 -21 51t-51 22t-51 -22t-21 -51z
" />
    <glyph glyph-name="plusminus" unicode="&#xb1;" horiz-adv-x="595" 
d="M500 445q19 0 26.5 -7.5t7.5 -26.5v-31q0 -20 -7.5 -27t-26.5 -7h-150v-78q0 -19 -7.5 -26.5t-26.5 -7.5h-37q-20 0 -27 7.5t-7 26.5v78h-149q-20 0 -27 7t-7 27v31q0 19 7 26.5t27 7.5h149v82q0 19 7 26.5t27 7.5h37q19 0 26.5 -7.5t7.5 -26.5v-82h150zM500 201
q19 0 26.5 -7.5t7.5 -26.5v-31q0 -20 -7.5 -27t-26.5 -7h-404q-20 0 -27 7t-7 27v31q0 19 7 26.5t27 7.5h404z" />
    <glyph glyph-name="uni00B2" unicode="&#xb2;" horiz-adv-x="364" 
d="M38 721q7 18 18.5 35.5t29.5 31.5t42.5 22.5t58.5 8.5q70 0 106 -37.5t36 -91.5q0 -28 -6 -48.5t-19 -36.5t-34 -27.5t-51 -21.5l-54 -16q-17 -5 -26.5 -11t-9.5 -16v-8h165q17 0 23 -7.5t6 -22.5v-30q0 -16 -6 -22.5t-23 -6.5h-228q-17 0 -24 6t-7 23v31q0 26 4 46.5
t13.5 36t25.5 27.5t41 22l55 21q26 10 40.5 20t14.5 37q0 17 -11 28.5t-33 11.5q-26 0 -37.5 -13t-16.5 -24q-8 -18 -16 -23.5t-28 1.5l-27 11q-17 6 -23 15.5t1 27.5z" />
    <glyph glyph-name="uni00B3" unicode="&#xb3;" horiz-adv-x="368" 
d="M33 720q17 48 53.5 73.5t100.5 25.5q66 0 101.5 -30.5t35.5 -83.5q0 -31 -9 -49.5t-34 -32.5q32 -17 43.5 -44.5t11.5 -57.5q0 -54 -37 -83.5t-112 -29.5q-64 0 -101 24t-54 72q-7 19 -3 28.5t19 14.5l28 9q17 6 26.5 2t17.5 -23q7 -20 21 -30t46 -10q53 0 53 38t-40 38
h-38q-19 0 -24.5 5.5t-5.5 24.5v25q0 22 5.5 27.5t27.5 5.5h29q18 0 28.5 8t10.5 27q0 38 -44 38q-29 0 -43.5 -10t-22.5 -30q-8 -21 -18 -26t-33 3l-18 7q-17 7 -22 16.5t1 27.5z" />
    <glyph glyph-name="acute" unicode="&#xb4;" horiz-adv-x="257" 
d="M169 730q15 8 29.5 10.5t27.5 -12.5l25 -31q11 -14 11 -21.5t-15 -13.5l-174 -73q-14 -5 -23 -5.5t-16 7.5l-14 18q-10 13 -10 19.5t12 13.5l147 88v0z" />
    <glyph glyph-name="mu" unicode="&#xb5;" horiz-adv-x="559" 
d="M472 518q17 0 23.5 -6.5t6.5 -23.5v-412q0 -24 -7.5 -35t-30.5 -21q-37 -15 -79.5 -25t-90.5 -10q-37 0 -67.5 8t-51.5 28v-210q0 -17 -7 -24t-24 -7h-55q-17 0 -23.5 7t-6.5 24v677q0 17 6.5 23.5t24.5 6.5h54q17 0 24 -6.5t7 -23.5v-299q0 -98 109 -98q29 0 50.5 3.5
t41.5 9.5q10 2 10 15v369q0 17 7 23.5t24 6.5h55v0z" />
    <glyph glyph-name="paragraph" unicode="&#xb6;" horiz-adv-x="573" 
d="M475 710q17 0 24 -7t7 -24v-737q0 -17 -7 -24t-24 -7h-46q-17 0 -24 7t-7 24v652h-57v-652q0 -17 -7 -24t-24 -7h-46q-17 0 -24 7t-7 24v352q-45 1 -82 16.5t-63.5 42.5t-41 65t-14.5 83q0 47 15 85.5t42.5 66t65.5 42.5t85 15h235v0z" />
    <glyph glyph-name="periodcentered" unicode="&#xb7;" horiz-adv-x="252" 
d="M129 353q37 0 51 -14t14 -50v-9q0 -37 -14 -50.5t-51 -13.5h-7q-36 0 -50 13.5t-14 50.5v9q0 36 14 50t50 14h7v0z" />
    <glyph glyph-name="cedilla" unicode="&#xb8;" horiz-adv-x="251" 
d="M145 -58q5 1 13 1q20 0 36 -7t27.5 -19t17 -28.5t3.5 -35.5q-3 -29 -15 -47.5t-30.5 -30t-41.5 -16t-47 -4.5q-6 0 -15.5 0.5t-20 2t-20.5 4t-17 6.5q-17 8 -17 28l-1 30q0 8 3.5 12.5t12.5 -0.5q13 -7 25 -11.5t35 -4.5q26 0 37.5 10.5t11.5 25.5t-10 21.5t-33 7.5
h-12.5t-11.5 -1q-24 -1 -14 24l38 90h68l-22 -58v0z" />
    <glyph glyph-name="uni00B9" unicode="&#xb9;" horiz-adv-x="285" 
d="M200 811q20 0 27.5 -7.5t7.5 -26.5v-327q0 -20 -7.5 -27t-27.5 -7h-29q-20 0 -27 7t-7 27v238l-56 -31q-31 -17 -49 12l-13 23q-10 18 -5.5 28t20.5 19l108 62q10 6 18.5 8t21.5 2h18v0z" />
    <glyph glyph-name="ordmasculine" unicode="&#xba;" horiz-adv-x="364" 
d="M46 548q0 57 34.5 89.5t101.5 32.5q68 0 102 -32.5t34 -89.5v-71q0 -57 -34 -89t-102 -32q-67 0 -101.5 32t-34.5 89v71zM226 552q0 17 -11 27t-33 10t-33 -10t-11 -27v-78q0 -37 44 -37t44 37v78z" />
    <glyph glyph-name="guillemotright" unicode="&#xbb;" horiz-adv-x="590" 
d="M290 400q-11 11 -11 19t11 19l34 35q19 22 38 0l191 -191q10 -11 10 -19.5t-10 -19.5l-186 -186q-11 -11 -19.5 -10.5t-19.5 10.5l-37 37q-11 11 -11 19.5t11 19.5l132 132zM53 400q-11 11 -11 19t11 19l34 35q11 11 19.5 11t19.5 -11l190 -191q11 -11 11 -19.5
t-11 -19.5l-186 -186q-11 -11 -19.5 -11t-19.5 11l-36 37q-11 11 -11 19.5t11 19.5l132 132z" />
    <glyph glyph-name="onequarter" unicode="&#xbc;" horiz-adv-x="803" 
d="M688 710q17 0 21.5 -9.5t-5.5 -23.5l-475 -647q-8 -10 -13.5 -16t-12.5 -9t-16.5 -4t-24.5 -1h-40q-19 0 -23 10t6 24l477 648q13 18 24 23t38 5h44zM215 709q20 0 27 -7.5t7 -26.5v-327q0 -20 -7 -27t-27 -7h-29q-20 0 -27.5 7t-7.5 27v239l-56 -32q-17 -9 -28 -5.5
t-20 17.5l-14 24q-10 17 -5 27.5t20 18.5l108 62q10 6 19 8t21 2h19zM693 395q20 0 24.5 -5t4.5 -25v-201h19q19 0 24 -5t5 -21v-28q0 -17 -5 -22t-24 -5h-19v-55q0 -17 -5 -22.5t-22 -5.5h-38q-17 0 -22 5.5t-5 22.5v55h-169q-17 0 -23 6t-6 24v24q0 11 1 17t8 14l170 210
q9 11 16.5 14t23.5 3h42zM630 164v110l-89 -110h89z" />
    <glyph glyph-name="onehalf" unicode="&#xbd;" horiz-adv-x="836" 
d="M215 716q19 0 26.5 -7.5t7.5 -26.5v-328q0 -19 -7.5 -26.5t-26.5 -7.5h-30q-19 0 -26.5 7.5t-7.5 26.5v239l-56 -31q-17 -9 -28 -5.5t-20 17.5l-14 23q-10 17 -5 27.5t20 19.5l108 62q10 6 19 8t21 2h19zM679 710q17 0 21.5 -9.5t-4.5 -23.5l-476 -647q-8 -10 -13.5 -16
t-12.5 -9t-16.5 -4t-24.5 -1h-39q-19 0 -23 10t6 24l476 648q13 18 24 23t38 5h44zM506 306q7 18 18.5 35t29.5 31t43 22.5t58 8.5q70 0 106 -37.5t36 -91.5q0 -28 -6 -48.5t-18.5 -36.5t-33.5 -27.5t-51 -20.5l-55 -16q-17 -5 -26.5 -11.5t-9.5 -15.5v-9h165q17 0 23 -7
t6 -23v-30q0 -15 -6 -22t-23 -7h-228q-17 0 -24 6.5t-7 23.5v30q0 26 4 46.5t13.5 36t25.5 27.5t41 22l55 22q26 10 40.5 20t14.5 36q0 17 -11 29t-33 12q-26 0 -37.5 -13.5t-16.5 -24.5q-8 -18 -16 -23t-27 2l-28 10q-17 6 -23 16t1 28z" />
    <glyph glyph-name="threequarters" unicode="&#xbe;" horiz-adv-x="834" 
d="M38 625q17 49 53.5 74t100.5 25q66 0 101.5 -30.5t35.5 -82.5q0 -31 -9 -50t-34 -33q32 -16 43 -43.5t11 -57.5q0 -54 -36.5 -84t-111.5 -30q-65 0 -101.5 24t-53.5 72q-7 20 -3 29t19 14l28 10q17 5 26 1.5t17 -22.5q8 -20 22 -30t46 -10q52 0 52 37q0 18 -9.5 28.5
t-29.5 10.5h-38q-20 0 -25 5t-5 25v25q0 22 5 27t27 5h30q18 0 28.5 8.5t10.5 27.5t-12 28.5t-32 9.5q-29 0 -43.5 -10t-22.5 -30q-8 -21 -18 -26t-33 3l-19 7q-16 6 -21.5 15.5t1.5 27.5zM722 710q17 0 21 -9.5t-5 -23.5l-476 -647q-7 -10 -12.5 -16t-12.5 -9t-17 -4
t-25 -1h-39q-19 0 -23 10t6 24l476 648q7 9 12.5 14.5t12 8.5t15.5 4t23 1h44zM727 395q19 0 24 -5t5 -25v-201h19q19 0 24 -5t5 -21v-28q0 -17 -5 -22t-24 -5h-19v-55q0 -17 -5 -22.5t-22 -5.5h-38q-17 0 -22 5.5t-5 22.5v55h-169q-17 0 -23 6t-6 24v24q0 11 1 17t8 14
l170 210q9 11 16.5 14t23.5 3h42zM664 274l-89 -110h89v110z" />
    <glyph glyph-name="questiondown" unicode="&#xbf;" horiz-adv-x="564" 
d="M303 387q-36 0 -50 14t-14 50v9q0 37 14 50.5t50 13.5h7q37 0 50.5 -13.5t13.5 -50.5v-9q0 -36 -13.5 -50t-50.5 -14h-7zM536 -57q-15 -37 -37 -67.5t-54 -52t-74 -33.5t-96 -12q-59 0 -104.5 16.5t-77 44.5t-48 65.5t-16.5 80.5q0 56 16.5 93t41 62t53 41.5t53.5 31.5
q26 17 44 36t18 51q0 19 7.5 25.5t25.5 6.5h39q18 0 25.5 -6.5t7.5 -25.5q0 -36 -8 -61.5t-21.5 -45t-31 -34t-36.5 -26.5q-20 -13 -40 -25.5t-35.5 -28t-25 -37t-9.5 -52.5q0 -45 31 -73.5t94 -28.5q62 0 94 25t51 69q8 19 17 23.5t27 -2.5l48 -17q18 -6 23 -15.5t-2 -27.5
z" />
    <glyph glyph-name="Agrave" unicode="&#xc0;" horiz-adv-x="658" 
d="M242 900q12 15 27 12.5t29 -10.5l148 -87q12 -7 12 -13.5t-10 -19.5l-14 -18q-7 -8 -16 -7.5t-23 5.5l-174 72q-15 6 -15.5 13.5t10.5 21.5zM647 33q12 -33 -23 -33h-52q-32 0 -44 6t-18 24l-46 129h-276l-47 -129q-6 -18 -18 -24t-44 -6h-46q-35 0 -23 33l250 650
q7 17 16 22.5t26 5.5h53q17 0 26.5 -5t15.5 -22zM353 473q-8 23 -12.5 45t-7 39t-3.5 27.5l-1 10.5h-7l-0.5 -10.5t-2.5 -27.5t-6.5 -38.5t-12.5 -44.5l-77 -212h206z" />
    <glyph glyph-name="Aacute" unicode="&#xc1;" horiz-adv-x="658" 
d="M362 904q15 8 30 10t27 -12l26 -32q11 -14 10.5 -21t-15.5 -13l-174 -73q-14 -5 -23 -6t-15 7l-15 19q-10 12 -9.5 19t11.5 13zM647 33q12 -33 -23 -33h-52q-32 0 -44 6t-18 24l-46 129h-276l-47 -129q-6 -18 -18 -24t-44 -6h-46q-35 0 -23 33l250 650q7 17 16 22.5
t26 5.5h53q17 0 26.5 -5t15.5 -22zM353 473q-8 23 -12.5 45t-7 39t-3.5 27.5l-1 10.5h-7l-0.5 -10.5t-2.5 -27.5t-6.5 -38.5t-12.5 -44.5l-77 -212h206z" />
    <glyph glyph-name="Acircumflex" unicode="&#xc2;" horiz-adv-x="658" 
d="M338 909q17 0 26.5 -4t28.5 -23l102 -98q9 -10 7 -17.5t-22 -7.5h-45q-19 0 -28.5 3t-20.5 15l-57 57l-61 -57q-11 -13 -19.5 -15.5t-27.5 -2.5h-42q-19 0 -21 7.5t7 17.5l101 98q9 9 15.5 14.5t13 8.5t13.5 3.5t18 0.5h12zM647 33q12 -33 -23 -33h-52q-32 0 -44 6
t-18 24l-46 129h-276l-47 -129q-6 -18 -18 -24t-44 -6h-46q-35 0 -23 33l250 650q7 17 16 22.5t26 5.5h53q17 0 26.5 -5t15.5 -22zM353 473q-8 23 -12.5 45t-7 39t-3.5 27.5l-1 10.5h-7l-0.5 -10.5t-2.5 -27.5t-6.5 -38.5t-12.5 -44.5l-77 -212h206z" />
    <glyph glyph-name="Atilde" unicode="&#xc3;" horiz-adv-x="658" 
d="M458 895q20 0 20 -19q0 -61 -20.5 -86t-64.5 -25q-24 0 -41 9t-31.5 19.5t-27.5 19.5t-29 9q-24 0 -24 -38q0 -19 -18 -19h-33q-19 0 -19 19q0 62 21 86.5t62 24.5q26 0 44 -9t32 -19.5t27 -19.5t29 -9q23 0 23 38q0 10 4 14.5t15 4.5h31zM647 33q12 -33 -23 -33h-52
q-32 0 -44 6t-18 24l-46 129h-276l-47 -129q-6 -18 -18 -24t-44 -6h-46q-35 0 -23 33l250 650q7 17 16 22.5t26 5.5h53q17 0 26.5 -5t15.5 -22zM353 473q-8 23 -12.5 45t-7 39t-3.5 27.5l-1 10.5h-7l-0.5 -10.5t-2.5 -27.5t-6.5 -38.5t-12.5 -44.5l-77 -212h206z" />
    <glyph glyph-name="Adieresis" unicode="&#xc4;" horiz-adv-x="658" 
d="M232 888q30 0 41.5 -11.5t11.5 -40.5v-10q0 -29 -11.5 -40.5t-41.5 -11.5h-7q-30 0 -41 11.5t-11 40.5v10q0 29 11 40.5t41 11.5h7zM432 888q30 0 41 -11.5t11 -40.5v-10q0 -29 -11 -40.5t-41 -11.5h-7q-30 0 -41.5 11.5t-11.5 40.5v10q0 29 11.5 40.5t41.5 11.5h7z
M647 33q12 -33 -23 -33h-52q-32 0 -44 6t-18 24l-46 129h-276l-47 -129q-6 -18 -18 -24t-44 -6h-46q-35 0 -23 33l250 650q7 17 16 22.5t26 5.5h53q17 0 26.5 -5t15.5 -22zM353 473q-8 23 -12.5 45t-7 39t-3.5 27.5l-1 10.5h-7l-0.5 -10.5t-2.5 -27.5t-6.5 -38.5
t-12.5 -44.5l-77 -212h206z" />
    <glyph glyph-name="Aring" unicode="&#xc5;" horiz-adv-x="658" 
d="M206 765q0 54 34.5 88t90.5 34q54 0 87.5 -34t33.5 -88q0 -32 -13 -57t-36 -39l244 -636q12 -33 -23 -33h-52q-32 0 -44 6t-18 24l-46 129h-276l-47 -129q-6 -18 -18 -24t-44 -6h-46q-35 0 -23 33l245 638q-23 14 -36 38t-13 56zM383 765q0 24 -14.5 38.5t-37.5 14.5
q-25 0 -40.5 -14.5t-15.5 -38.5q0 -23 15.5 -37.5t40.5 -14.5q23 0 37.5 14.5t14.5 37.5zM353 473q-8 23 -12.5 45t-7 39t-3.5 27.5l-1 10.5h-7l-0.5 -10.5t-2.5 -27.5t-6.5 -38.5t-12.5 -44.5l-77 -212h206z" />
    <glyph glyph-name="AE" unicode="&#xc6;" horiz-adv-x="858" 
d="M792 117q19 0 26.5 -7.5t7.5 -26.5v-49q0 -19 -7.5 -26.5t-26.5 -7.5h-338q-19 0 -26.5 7.5t-7.5 26.5v115h-210l-72 -119q-9 -16 -20 -23t-43 -7h-53q-35 0 -23 33l408 649q10 15 17.5 21.5t24.5 6.5h332q19 0 26.5 -7.5t7.5 -26.5v-49q0 -19 -7.5 -26.5t-26.5 -7.5
h-240v-175h192q20 0 27 -7.5t7 -26.5v-49q0 -19 -7 -26.5t-27 -7.5h-192v-184h251zM271 252h149v247z" />
    <glyph glyph-name="Ccedilla" unicode="&#xc7;" horiz-adv-x="640" 
d="M586 197q18 -7 23 -16.5t-1 -27.5q-27 -75 -86 -118t-158 -49l-17 -44q4 1 13 1q19 0 35.5 -7t28 -19t17 -28.5t3.5 -35.5q-3 -29 -15.5 -47.5t-30.5 -30t-41 -16t-47 -4.5q-6 0 -15.5 0.5t-20 2t-20.5 4t-17 6.5q-11 5 -14 11t-3 17l-1 30q0 8 3.5 12.5t12.5 -0.5
q13 -7 25 -11.5t35 -4.5q26 0 37.5 10.5t11.5 25.5q0 28 -43 29h-13t-12 -1q-25 -1 -13 24l32 77q-119 10 -182.5 78t-63.5 181v219q0 120 74 190t212 70q111 0 177 -43t95 -124q7 -18 2 -27.5t-23 -16.5l-55 -19q-18 -5 -27 -1.5t-16 22.5q-17 46 -53.5 69t-99.5 23
q-78 0 -119 -36.5t-41 -105.5v-221q0 -69 41 -106t119 -37q63 0 99.5 23.5t53.5 69.5q8 19 17 23.5t27 -2.5l54 -19v0z" />
    <glyph glyph-name="Egrave" unicode="&#xc8;" horiz-adv-x="579" 
d="M216 900q13 15 27.5 12.5t29.5 -10.5l148 -87q11 -7 11 -13.5t-10 -19.5l-14 -18q-6 -8 -15 -7.5t-23 5.5l-175 72q-15 6 -15 13.5t11 21.5zM501 710q20 0 27.5 -7.5t7.5 -26.5v-49q0 -19 -7.5 -26.5t-27.5 -7.5h-306v-175h259q19 0 26.5 -7.5t7.5 -26.5v-49
q0 -19 -7.5 -26.5t-26.5 -7.5h-259v-184h317q20 0 27 -7.5t7 -26.5v-49q0 -19 -7 -26.5t-27 -7.5h-408q-20 0 -27.5 7.5t-7.5 26.5v642q0 19 7.5 26.5t27.5 7.5h397z" />
    <glyph glyph-name="Eacute" unicode="&#xc9;" horiz-adv-x="579" 
d="M337 904q15 8 29.5 10t27.5 -12l25 -32q11 -14 11 -21t-15 -13l-174 -73q-14 -5 -23 -6t-16 7l-14 19q-10 12 -10 19t12 13zM501 710q20 0 27.5 -7.5t7.5 -26.5v-49q0 -19 -7.5 -26.5t-27.5 -7.5h-306v-175h259q19 0 26.5 -7.5t7.5 -26.5v-49q0 -19 -7.5 -26.5
t-26.5 -7.5h-259v-184h317q20 0 27 -7.5t7 -26.5v-49q0 -19 -7 -26.5t-27 -7.5h-408q-20 0 -27.5 7.5t-7.5 26.5v642q0 19 7.5 26.5t27.5 7.5h397z" />
    <glyph glyph-name="Ecircumflex" unicode="&#xca;" horiz-adv-x="579" 
d="M312 909q9 0 15 -0.5t12 -3t12.5 -8t16.5 -15.5l101 -98q9 -10 7 -17.5t-21 -7.5h-45q-19 0 -29 3t-20 15l-58 57l-60 -57q-12 -13 -20.5 -15.5t-27.5 -2.5h-41q-20 0 -22 7.5t7 17.5l102 98q9 9 15.5 14.5t12.5 8.5t13 3.5t18 0.5h12zM501 710q20 0 27.5 -7.5t7.5 -26.5
v-49q0 -19 -7.5 -26.5t-27.5 -7.5h-306v-175h259q19 0 26.5 -7.5t7.5 -26.5v-49q0 -19 -7.5 -26.5t-26.5 -7.5h-259v-184h317q20 0 27 -7.5t7 -26.5v-49q0 -19 -7 -26.5t-27 -7.5h-408q-20 0 -27.5 7.5t-7.5 26.5v642q0 19 7.5 26.5t27.5 7.5h397z" />
    <glyph glyph-name="Edieresis" unicode="&#xcb;" horiz-adv-x="579" 
d="M206 888q30 0 41.5 -11.5t11.5 -40.5v-10q0 -29 -11.5 -40.5t-41.5 -11.5h-7q-29 0 -40.5 11.5t-11.5 40.5v10q0 29 11.5 40.5t40.5 11.5h7zM407 888q29 0 40.5 -11.5t11.5 -40.5v-10q0 -29 -11.5 -40.5t-40.5 -11.5h-7q-30 0 -41.5 11.5t-11.5 40.5v10q0 29 11.5 40.5
t41.5 11.5h7zM501 710q20 0 27.5 -7.5t7.5 -26.5v-49q0 -19 -7.5 -26.5t-27.5 -7.5h-306v-175h259q19 0 26.5 -7.5t7.5 -26.5v-49q0 -19 -7.5 -26.5t-26.5 -7.5h-259v-184h317q20 0 27 -7.5t7 -26.5v-49q0 -19 -7 -26.5t-27 -7.5h-408q-20 0 -27.5 7.5t-7.5 26.5v642
q0 19 7.5 26.5t27.5 7.5h397z" />
    <glyph glyph-name="Igrave" unicode="&#xcc;" horiz-adv-x="264" 
d="M46 900q12 15 27 12.5t30 -10.5l147 -87q12 -7 12 -13.5t-10 -19.5l-14 -18q-7 -8 -16 -7.5t-23 5.5l-174 72q-15 6 -15.5 13.5t10.5 21.5zM70 676q0 19 7 26.5t27 7.5h57q19 0 26.5 -7.5t7.5 -26.5v-642q0 -19 -7.5 -26.5t-26.5 -7.5h-57q-20 0 -27 7.5t-7 26.5v642z
" />
    <glyph glyph-name="Iacute" unicode="&#xcd;" horiz-adv-x="264" 
d="M166 904q15 8 30 10t27 -12l26 -32q11 -14 10.5 -21t-15.5 -13l-174 -73q-14 -5 -23 -6t-16 7l-14 19q-10 12 -9.5 19t11.5 13zM69 676q0 19 7.5 26.5t27.5 7.5h57q19 0 26.5 -7.5t7.5 -26.5v-642q0 -19 -7.5 -26.5t-26.5 -7.5h-57q-20 0 -27.5 7.5t-7.5 26.5v642z" />
    <glyph glyph-name="Icircumflex" unicode="&#xce;" horiz-adv-x="264" 
d="M142 909q17 0 26.5 -4t28.5 -23l102 -98q9 -10 7 -17.5t-22 -7.5h-45q-19 0 -28.5 3t-20.5 15l-58 57l-60 -57q-11 -13 -19.5 -15.5t-27.5 -2.5h-42q-20 0 -21.5 7.5t7.5 17.5l101 98q9 9 15.5 14.5t13 8.5t13.5 3.5t18 0.5h12zM69 676q0 19 7.5 26.5t27.5 7.5h57
q19 0 26.5 -7.5t7.5 -26.5v-642q0 -19 -7.5 -26.5t-26.5 -7.5h-57q-20 0 -27.5 7.5t-7.5 26.5v642z" />
    <glyph glyph-name="Idieresis" unicode="&#xcf;" horiz-adv-x="264" 
d="M36 888q30 0 41 -11.5t11 -40.5v-10q0 -29 -11 -40.5t-41 -11.5h-7q-30 0 -41 11.5t-11 40.5v10q0 29 11 40.5t41 11.5h7zM236 888q30 0 41 -11.5t11 -40.5v-10q0 -29 -11 -40.5t-41 -11.5h-7q-30 0 -41.5 11.5t-11.5 40.5v10q0 29 11.5 40.5t41.5 11.5h7zM69 676
q0 19 7.5 26.5t27.5 7.5h57q19 0 26.5 -7.5t7.5 -26.5v-642q0 -19 -7.5 -26.5t-26.5 -7.5h-57q-20 0 -27.5 7.5t-7.5 26.5v642z" />
    <glyph glyph-name="Eth" unicode="&#xd0;" horiz-adv-x="682" 
d="M344 710q70 0 124 -18.5t91 -52.5t56 -83t19 -110v-182q0 -61 -19 -110t-56 -83t-91 -52.5t-124 -18.5h-225q-20 0 -27 7.5t-7 26.5v292h-59q-12 0 -16 4t-4 18v37q0 13 4.5 17.5t15.5 4.5h59v269q0 19 7 26.5t27 7.5h225zM508 447q0 72 -42 109t-122 37h-134v-186h133
q12 0 16 -4.5t4 -17.5v-37q0 -14 -4 -18t-16 -4h-133v-209h134q79 0 121.5 37t42.5 109v184z" />
    <glyph glyph-name="Ntilde" unicode="&#xd1;" horiz-adv-x="696" 
d="M479 895q19 0 19 -19q0 -61 -20 -86t-65 -25q-24 0 -41 9t-31 19.5t-27.5 19.5t-29.5 9q-23 0 -23 -38q0 -19 -19 -19h-32q-19 0 -19 19q0 62 21 86.5t61 24.5q26 0 44 -9t32.5 -19.5t27.5 -19.5t28 -9q24 0 24 38q0 10 3.5 14.5t14.5 4.5h32zM592 710q20 0 27 -7.5
t7 -26.5v-642q0 -19 -7 -26.5t-27 -7.5h-57q-13 0 -20 3.5t-13 13.5l-245 362q-18 26 -32.5 55t-25 53t-17 41t-7.5 19h-6q0 -3 3.5 -21t7.5 -46t7.5 -62t3.5 -70v-314q0 -19 -7.5 -26.5t-26.5 -7.5h-53q-20 0 -27.5 7.5t-7.5 26.5v642q0 19 7.5 26.5t27.5 7.5h57
q14 0 21 -4t12 -12l243 -360q19 -29 34 -58t25.5 -53t16.5 -40t8 -19h6q0 4 -3.5 21.5t-7.5 45t-7.5 62.5t-3.5 73v310q0 19 7.5 26.5t26.5 7.5h53z" />
    <glyph glyph-name="Ograve" unicode="&#xd2;" horiz-adv-x="669" 
d="M248 910q12 15 27 12.5t30 -10.5l147 -87q12 -7 12 -13.5t-10 -19.5l-14 -18q-6 -8 -15 -7.5t-24 5.5l-174 72q-15 6 -15.5 13.5t10.5 21.5zM49 464q0 121 73.5 191t212.5 70q138 0 211.5 -70t73.5 -191v-218q0 -121 -73.5 -191t-211.5 -70q-139 0 -212.5 70t-73.5 191
v218zM495 465q0 70 -41.5 106.5t-118.5 36.5q-78 0 -119 -36.5t-41 -106.5v-220q0 -70 41 -106.5t119 -36.5q77 0 118.5 36.5t41.5 106.5v220z" />
    <glyph glyph-name="Oacute" unicode="&#xd3;" horiz-adv-x="669" 
d="M369 914q15 8 29.5 10t26.5 -12l26 -32q11 -14 10.5 -21t-14.5 -13l-174 -73q-14 -5 -23 -6t-16 7l-14 19q-10 12 -10 19t12 13zM49 464q0 121 73.5 191t212.5 70q138 0 211.5 -70t73.5 -191v-218q0 -121 -73.5 -191t-211.5 -70q-139 0 -212.5 70t-73.5 191v218zM495 465
q0 70 -41.5 106.5t-118.5 36.5q-78 0 -119 -36.5t-41 -106.5v-220q0 -70 41 -106.5t119 -36.5q77 0 118.5 36.5t41.5 106.5v220z" />
    <glyph glyph-name="Ocircumflex" unicode="&#xd4;" horiz-adv-x="669" 
d="M344 919q9 0 15 -0.5t12 -3t12.5 -8t16.5 -15.5l101 -98q9 -10 7 -17.5t-22 -7.5h-44q-20 0 -29.5 3t-20.5 15l-57 57l-60 -57q-12 -13 -20.5 -15.5t-27.5 -2.5h-41q-20 0 -22 7.5t7 17.5l102 98q9 9 15.5 14.5t12.5 8.5t13 3.5t18 0.5h12zM49 464q0 121 73.5 191
t212.5 70q138 0 211.5 -70t73.5 -191v-218q0 -121 -73.5 -191t-211.5 -70q-139 0 -212.5 70t-73.5 191v218zM495 465q0 70 -41.5 106.5t-118.5 36.5q-78 0 -119 -36.5t-41 -106.5v-220q0 -70 41 -106.5t119 -36.5q77 0 118.5 36.5t41.5 106.5v220z" />
    <glyph glyph-name="Otilde" unicode="&#xd5;" horiz-adv-x="669" 
d="M465 905q19 0 19 -19q0 -61 -20 -86t-65 -25q-24 0 -41 9t-31 19.5t-27.5 19.5t-29.5 9q-23 0 -23 -38q0 -19 -19 -19h-32q-19 0 -19 19q0 62 21 86.5t61 24.5q26 0 44 -9t32.5 -19.5t27.5 -19.5t28 -9q24 0 24 38q0 10 3.5 14.5t14.5 4.5h32zM49 464q0 121 73.5 191
t212.5 70q138 0 211.5 -70t73.5 -191v-218q0 -121 -73.5 -191t-211.5 -70q-139 0 -212.5 70t-73.5 191v218zM495 465q0 70 -41.5 106.5t-118.5 36.5q-78 0 -119 -36.5t-41 -106.5v-220q0 -70 41 -106.5t119 -36.5q77 0 118.5 36.5t41.5 106.5v220z" />
    <glyph glyph-name="Odieresis" unicode="&#xd6;" horiz-adv-x="669" 
d="M238 898q30 0 41.5 -11.5t11.5 -40.5v-10q0 -29 -11.5 -40.5t-41.5 -11.5h-7q-30 0 -41 11.5t-11 40.5v10q0 29 11 40.5t41 11.5h7zM438 898q30 0 41.5 -11.5t11.5 -40.5v-10q0 -29 -11.5 -40.5t-41.5 -11.5h-6q-30 0 -41.5 11.5t-11.5 40.5v10q0 29 11.5 40.5t41.5 11.5
h6zM49 464q0 121 73.5 191t212.5 70q138 0 211.5 -70t73.5 -191v-218q0 -121 -73.5 -191t-211.5 -70q-139 0 -212.5 70t-73.5 191v218zM495 465q0 70 -41.5 106.5t-118.5 36.5q-78 0 -119 -36.5t-41 -106.5v-220q0 -70 41 -106.5t119 -36.5q77 0 118.5 36.5t41.5 106.5v220z
" />
    <glyph glyph-name="multiply" unicode="&#xd7;" horiz-adv-x="513" 
d="M450 204q14 -13 14 -23t-14 -23l-27 -28q-13 -13 -22.5 -13t-23.5 13l-121 121l-120 -120q-13 -13 -23 -13t-23 13l-28 28q-13 12 -13 22t13 24l120 120l-120 120q-13 14 -13 24t13 22l28 28q13 13 23 13t23 -13l120 -121l121 121q14 14 23.5 14t22.5 -14l27 -27
q14 -13 14 -23t-14 -23l-121 -121l121 -121v0z" />
    <glyph glyph-name="Oslash" unicode="&#xd8;" horiz-adv-x="669" 
d="M626 753q11 0 6 -11l-68 -105q56 -67 56 -173v-218q0 -121 -73.5 -190t-211.5 -71q-50 -1 -91 8.5t-73 26.5l-31 -49q-5 -7 -8.5 -8.5t-14.5 -1.5h-65q-13 0 -6 11l62 97q-59 67 -59 177v218q0 121 73.5 191t212.5 70q51 0 92.5 -10t74.5 -29l36 57q5 7 8.5 8.5t12.5 1.5
h67zM436 583q-20 12 -44.5 18.5t-56.5 6.5q-78 0 -119 -36.5t-41 -106.5v-220q0 -31 12 -53zM237 124q38 -22 98 -22q77 0 118.5 36.5t41.5 106.5v220q0 25 -10 47z" />
    <glyph glyph-name="Ugrave" unicode="&#xd9;" horiz-adv-x="688" 
d="M257 900q12 15 27 12.5t30 -10.5l147 -87q12 -7 12 -13.5t-10 -19.5l-14 -18q-6 -8 -15 -7.5t-24 5.5l-174 72q-15 6 -15.5 13.5t10.5 21.5zM190 243q0 -67 38 -104t116 -37t116 37t38 104v433q0 19 7.5 26.5t26.5 7.5h57q20 0 27 -7.5t7 -26.5v-432q0 -59 -17.5 -107
t-53 -81.5t-87.5 -52t-121 -18.5t-121.5 18.5t-87.5 52t-53 81.5t-18 107v432q0 19 7.5 26.5t26.5 7.5h58q19 0 26.5 -7.5t7.5 -26.5v-433z" />
    <glyph glyph-name="Uacute" unicode="&#xda;" horiz-adv-x="688" 
d="M378 904q15 8 29.5 10t26.5 -12l26 -32q11 -14 10.5 -21t-14.5 -13l-174 -73q-14 -5 -23 -6t-16 7l-14 19q-10 12 -10 19t12 13zM190 243q0 -67 38 -104t116 -37t116 37t38 104v433q0 19 7.5 26.5t26.5 7.5h57q20 0 27 -7.5t7 -26.5v-432q0 -59 -17.5 -107t-53 -81.5
t-87.5 -52t-121 -18.5t-121.5 18.5t-87.5 52t-53 81.5t-18 107v432q0 19 7.5 26.5t26.5 7.5h58q19 0 26.5 -7.5t7.5 -26.5v-433z" />
    <glyph glyph-name="Ucircumflex" unicode="&#xdb;" horiz-adv-x="688" 
d="M353 909q9 0 15 -0.5t12 -3t12.5 -8t16.5 -15.5l101 -98q9 -10 7 -17.5t-22 -7.5h-44q-20 0 -29.5 3t-20.5 15l-57 57l-60 -57q-12 -13 -20.5 -15.5t-27.5 -2.5h-41q-20 0 -22 7.5t7 17.5l102 98q9 9 15.5 14.5t12.5 8.5t13 3.5t18 0.5h12zM190 243q0 -67 38 -104
t116 -37t116 37t38 104v433q0 19 7.5 26.5t26.5 7.5h57q20 0 27 -7.5t7 -26.5v-432q0 -59 -17.5 -107t-53 -81.5t-87.5 -52t-121 -18.5t-121.5 18.5t-87.5 52t-53 81.5t-18 107v432q0 19 7.5 26.5t26.5 7.5h58q19 0 26.5 -7.5t7.5 -26.5v-433z" />
    <glyph glyph-name="Udieresis" unicode="&#xdc;" horiz-adv-x="688" 
d="M247 888q30 0 41.5 -11.5t11.5 -40.5v-10q0 -29 -11.5 -40.5t-41.5 -11.5h-7q-30 0 -41 11.5t-11 40.5v10q0 29 11 40.5t41 11.5h7zM447 888q30 0 41.5 -11.5t11.5 -40.5v-10q0 -29 -11.5 -40.5t-41.5 -11.5h-6q-30 0 -41.5 11.5t-11.5 40.5v10q0 29 11.5 40.5t41.5 11.5
h6zM190 243q0 -67 38 -104t116 -37t116 37t38 104v433q0 19 7.5 26.5t26.5 7.5h57q20 0 27 -7.5t7 -26.5v-432q0 -59 -17.5 -107t-53 -81.5t-87.5 -52t-121 -18.5t-121.5 18.5t-87.5 52t-53 81.5t-18 107v432q0 19 7.5 26.5t26.5 7.5h58q19 0 26.5 -7.5t7.5 -26.5v-433z" />
    <glyph glyph-name="Yacute" unicode="&#xdd;" horiz-adv-x="643" 
d="M358 904q15 8 29.5 10t27.5 -12l25 -32q11 -14 11 -21t-15 -13l-174 -73q-14 -5 -23 -6t-16 7l-14 19q-10 12 -10 19t12 13zM611 710q19 0 22 -10t-5 -24l-244 -396v-246q0 -19 -7.5 -26.5t-26.5 -7.5h-57q-20 0 -27 7.5t-7 26.5v248l-245 394q-8 14 -4.5 24t22.5 10h70
q30 0 42.5 -4t23.5 -26l155 -270l156 270q6 11 11.5 17t13 9t17.5 3.5t25 0.5h65z" />
    <glyph glyph-name="Thorn" unicode="&#xde;" horiz-adv-x="630" 
d="M359 601q56 0 101.5 -16.5t77.5 -48t49.5 -76.5t17.5 -101t-17.5 -101t-49.5 -76t-77.5 -47.5t-101.5 -16.5h-164v-84q0 -19 -7.5 -26.5t-26.5 -7.5h-57q-20 0 -27.5 7.5t-7.5 26.5v642q0 19 7.5 26.5t27.5 7.5h57q19 0 26.5 -7.5t7.5 -26.5v-75h164zM347 235
q59 0 92.5 34.5t33.5 89.5t-33.5 90t-92.5 35h-152v-249h152z" />
    <glyph glyph-name="germandbls" unicode="&#xdf;" horiz-adv-x="553" 
d="M58 528q0 48 14 89t41 70.5t67 46t92 16.5q109 0 164 -55.5t55 -149.5q0 -48 -17 -88.5t-57 -64.5v-3q45 -18 73 -60t28 -123q0 -100 -56.5 -153t-158.5 -53h-52q-19 0 -26.5 7.5t-7.5 26.5v49q0 19 7.5 26.5t26.5 7.5h40q48 0 73.5 26.5t25.5 77.5q0 48 -25 75.5
t-72 27.5h-41q-19 0 -26.5 7t-7.5 27v45q0 20 7.5 27t26.5 7h30q42 0 64.5 27t22.5 69q0 49 -25 74.5t-73 25.5q-46 0 -71.5 -28t-25.5 -76v-495q0 -19 -7 -26.5t-27 -7.5h-47q-20 0 -27.5 7.5t-7.5 26.5v494v0z" />
    <glyph glyph-name="agrave" unicode="&#xe0;" horiz-adv-x="519" 
d="M169 727q13 14 27.5 12t29.5 -11l147 -88q11 -6 11.5 -13t-9.5 -19l-14 -19q-7 -8 -16 -7.5t-23 6.5l-174 73q-15 5 -15 12.5t11 21.5zM49 429q26 49 77.5 76.5t129.5 27.5q61 0 102.5 -15.5t66 -43t35 -65.5t10.5 -82v-259q0 -26 -7.5 -37t-28.5 -20q-28 -12 -73 -19
t-107 -7q-66 0 -109.5 10.5t-68.5 31.5t-35 51t-10 69q0 45 13 76t40.5 49.5t70.5 27t103 8.5q29 0 56 -2t40 -3v28q0 47 -22 73t-78 26q-74 0 -105 -48q-11 -16 -18.5 -19t-24.5 4l-40 17q-17 8 -21.5 18t4.5 27zM354 208q-8 0 -20.5 1t-27.5 2t-30.5 1.5t-30.5 0.5
q-57 0 -76.5 -17t-19.5 -48q0 -15 3.5 -27.5t14 -21.5t29 -13.5t47.5 -4.5q38 0 62 2.5t38 5.5q6 2 8.5 4.5t2.5 9.5v105z" />
    <glyph glyph-name="aacute" unicode="&#xe1;" horiz-adv-x="519" 
d="M290 728q14 9 29 11t27 -12l26 -32q11 -14 10.5 -21.5t-15.5 -12.5l-174 -73q-14 -6 -23 -6.5t-15 7.5l-14 19q-10 12 -10 19t11 13zM49 429q26 49 77.5 76.5t129.5 27.5q61 0 102.5 -15.5t66 -43t35 -65.5t10.5 -82v-259q0 -26 -7.5 -37t-28.5 -20q-28 -12 -73 -19
t-107 -7q-66 0 -109.5 10.5t-68.5 31.5t-35 51t-10 69q0 45 13 76t40.5 49.5t70.5 27t103 8.5q29 0 56 -2t40 -3v28q0 47 -22 73t-78 26q-74 0 -105 -48q-11 -16 -18.5 -19t-24.5 4l-40 17q-17 8 -21.5 18t4.5 27zM354 208q-8 0 -20.5 1t-27.5 2t-30.5 1.5t-30.5 0.5
q-57 0 -76.5 -17t-19.5 -48q0 -15 3.5 -27.5t14 -21.5t29 -13.5t47.5 -4.5q38 0 62 2.5t38 5.5q6 2 8.5 4.5t2.5 9.5v105z" />
    <glyph glyph-name="acircumflex" unicode="&#xe2;" horiz-adv-x="519" 
d="M265 732q17 0 26.5 -3.5t28.5 -22.5l102 -98q9 -10 7 -17.5t-22 -7.5h-45q-19 0 -28.5 3t-20.5 14l-57 57l-61 -57q-11 -12 -19.5 -14.5t-27.5 -2.5h-41q-20 0 -22 7.5t7 17.5l102 98q9 9 15.5 14.5t12.5 8t13 3t18 0.5h12zM49 429q26 49 77.5 76.5t129.5 27.5
q61 0 102.5 -15.5t66 -43t35 -65.5t10.5 -82v-259q0 -26 -7.5 -37t-28.5 -20q-28 -12 -73 -19t-107 -7q-66 0 -109.5 10.5t-68.5 31.5t-35 51t-10 69q0 45 13 76t40.5 49.5t70.5 27t103 8.5q29 0 56 -2t40 -3v28q0 47 -22 73t-78 26q-74 0 -105 -48q-11 -16 -18.5 -19
t-24.5 4l-40 17q-17 8 -21.5 18t4.5 27zM354 208q-8 0 -20.5 1t-27.5 2t-30.5 1.5t-30.5 0.5q-57 0 -76.5 -17t-19.5 -48q0 -15 3.5 -27.5t14 -21.5t29 -13.5t47.5 -4.5q38 0 62 2.5t38 5.5q6 2 8.5 4.5t2.5 9.5v105z" />
    <glyph glyph-name="atilde" unicode="&#xe3;" horiz-adv-x="519" 
d="M386 724q19 0 19 -19q0 -62 -20.5 -87t-64.5 -25q-24 0 -41 9t-31.5 19.5t-27.5 19.5t-29 9q-24 0 -24 -38q0 -19 -18 -19h-33q-19 0 -19 19q0 63 21.5 87.5t61.5 24.5q26 0 44 -9t32 -19.5t27 -19.5t29 -9q23 0 23 38q0 10 4 14.5t15 4.5h32zM49 429q26 49 77.5 76.5
t129.5 27.5q61 0 102.5 -15.5t66 -43t35 -65.5t10.5 -82v-259q0 -26 -7.5 -37t-28.5 -20q-28 -12 -73 -19t-107 -7q-66 0 -109.5 10.5t-68.5 31.5t-35 51t-10 69q0 45 13 76t40.5 49.5t70.5 27t103 8.5q29 0 56 -2t40 -3v28q0 47 -22 73t-78 26q-74 0 -105 -48
q-11 -16 -18.5 -19t-24.5 4l-40 17q-17 8 -21.5 18t4.5 27zM354 208q-8 0 -20.5 1t-27.5 2t-30.5 1.5t-30.5 0.5q-57 0 -76.5 -17t-19.5 -48q0 -15 3.5 -27.5t14 -21.5t29 -13.5t47.5 -4.5q38 0 62 2.5t38 5.5q6 2 8.5 4.5t2.5 9.5v105z" />
    <glyph glyph-name="adieresis" unicode="&#xe4;" horiz-adv-x="519" 
d="M159 709q30 0 41.5 -11.5t11.5 -40.5v-9q0 -29 -11.5 -40.5t-41.5 -11.5h-7q-30 0 -41 11.5t-11 40.5v9q0 29 11 40.5t41 11.5h7zM359 709q30 0 41 -11.5t11 -40.5v-9q0 -29 -11 -40.5t-41 -11.5h-6q-31 0 -42 11.5t-11 40.5v9q0 29 11 40.5t42 11.5h6zM49 429
q26 49 77.5 76.5t129.5 27.5q61 0 102.5 -15.5t66 -43t35 -65.5t10.5 -82v-259q0 -26 -7.5 -37t-28.5 -20q-28 -12 -73 -19t-107 -7q-66 0 -109.5 10.5t-68.5 31.5t-35 51t-10 69q0 45 13 76t40.5 49.5t70.5 27t103 8.5q29 0 56 -2t40 -3v28q0 47 -22 73t-78 26
q-74 0 -105 -48q-11 -16 -18.5 -19t-24.5 4l-40 17q-17 8 -21.5 18t4.5 27zM354 208q-8 0 -20.5 1t-27.5 2t-30.5 1.5t-30.5 0.5q-57 0 -76.5 -17t-19.5 -48q0 -15 3.5 -27.5t14 -21.5t29 -13.5t47.5 -4.5q38 0 62 2.5t38 5.5q6 2 8.5 4.5t2.5 9.5v105z" />
    <glyph glyph-name="aring" unicode="&#xe5;" horiz-adv-x="519" 
d="M150 679q0 48 31 77.5t79 29.5t77.5 -29.5t29.5 -77.5q0 -46 -29.5 -75.5t-77.5 -29.5t-79 29.5t-31 75.5zM309 679q0 23 -13.5 36.5t-35.5 13.5q-23 0 -37.5 -13.5t-14.5 -36.5q0 -21 14.5 -34.5t37.5 -13.5q22 0 35.5 13.5t13.5 34.5zM49 429q26 49 77.5 76.5
t129.5 27.5q61 0 102.5 -15.5t66 -43t35 -65.5t10.5 -82v-259q0 -26 -7.5 -37t-28.5 -20q-28 -12 -73 -19t-107 -7q-66 0 -109.5 10.5t-68.5 31.5t-35 51t-10 69q0 45 13 76t40.5 49.5t70.5 27t103 8.5q29 0 56 -2t40 -3v28q0 47 -22 73t-78 26q-74 0 -105 -48
q-11 -16 -18.5 -19t-24.5 4l-40 17q-17 8 -21.5 18t4.5 27zM354 208q-8 0 -20.5 1t-27.5 2t-30.5 1.5t-30.5 0.5q-57 0 -76.5 -17t-19.5 -48q0 -15 3.5 -27.5t14 -21.5t29 -13.5t47.5 -4.5q38 0 62 2.5t38 5.5q6 2 8.5 4.5t2.5 9.5v105z" />
    <glyph glyph-name="ae" unicode="&#xe6;" horiz-adv-x="799" 
d="M49 429q26 49 73.5 76.5t121.5 27.5q55 0 90.5 -15t57.5 -40q26 26 64.5 40.5t90.5 14.5q58 0 99 -16t67.5 -44t39 -65.5t12.5 -80.5v-62q0 -20 -9 -31.5t-35 -11.5h-275v-37q0 -100 101 -100q40 0 63.5 14t39.5 39q12 16 22.5 19t28.5 -7l35 -19q33 -17 12 -50
q-27 -45 -74 -70.5t-128 -25.5q-43 0 -77.5 10.5t-58.5 27.5q-27 -15 -66 -26.5t-102 -11.5t-104 10.5t-64.5 31t-32.5 50.5t-9 69q0 45 12 76t37.5 50t66 27.5t98.5 8.5q24 0 47 -2t36 -3v41q0 39 -18 62.5t-70 23.5q-32 0 -53.5 -11.5t-38.5 -36.5q-11 -15 -18 -18.5
t-24 4.5l-40 17q-17 7 -22 17t4 27zM649 333q0 49 -24 75.5t-78 26.5q-52 0 -76.5 -26.5t-24.5 -75.5v-22h203v22zM329 208q-15 1 -43.5 3t-52.5 2q-26 0 -42.5 -4.5t-25.5 -13t-12.5 -21t-3.5 -27.5t3 -27t12 -21t25 -13.5t42 -4.5q28 0 46.5 3t30.5 6.5t17 7t6 5.5
q-2 12 -2 24v25v56z" />
    <glyph glyph-name="ccedilla" unicode="&#xe7;" horiz-adv-x="517" 
d="M464 163q17 -7 23 -16.5t-2 -28.5q-21 -56 -64.5 -89t-115.5 -41l-17 -46q4 1 13 1q19 0 35.5 -7t28 -19t17 -28.5t3.5 -35.5q-3 -29 -15.5 -47.5t-30.5 -30t-41 -16t-47 -4.5q-7 0 -16.5 0.5t-19.5 2t-20 4t-17 6.5q-11 5 -14 11t-3 17l-1 30q0 8 3.5 12.5t12.5 -0.5
q13 -7 25 -11.5t35 -4.5q26 0 37.5 10.5t11.5 25.5q0 28 -43 29h-13t-12 -1q-24 -1 -14 24l33 76q-101 7 -148 60.5t-47 143.5v138q0 96 56 150.5t174 54.5q89 0 142 -37.5t72 -93.5q6 -19 0.5 -28.5t-22.5 -16.5l-44 -14q-18 -8 -27.5 -2.5t-16.5 23.5q-12 32 -38 49.5
t-71 17.5q-54 0 -81.5 -25t-27.5 -73v-148q0 -47 27.5 -72.5t81.5 -25.5q44 0 70.5 18.5t38.5 50.5q7 18 16.5 22t27.5 -2l45 -13v0z" />
    <glyph glyph-name="egrave" unicode="&#xe8;" horiz-adv-x="537" 
d="M185 727q13 14 27.5 12t29.5 -10l147 -89q11 -6 11.5 -13t-9.5 -19l-14 -18q-7 -9 -16 -8t-23 6l-174 73q-15 6 -15 13t11 21zM40 317q0 105 59 160.5t173 55.5q60 0 103.5 -16t72 -44t42 -66t13.5 -81v-61q0 -20 -9.5 -31.5t-35.5 -11.5h-302v-37q0 -49 29.5 -74.5
t84.5 -25.5q45 0 73.5 14t44.5 39q12 17 22.5 19.5t28.5 -7.5l35 -19q34 -16 12 -50q-27 -45 -79 -70.5t-137 -25.5q-62 0 -105.5 16t-71 44.5t-40.5 68t-13 85.5v118zM387 333q0 49 -29 75.5t-86 26.5t-86.5 -26.5t-29.5 -75.5v-22h231v22z" />
    <glyph glyph-name="eacute" unicode="&#xe9;" horiz-adv-x="537" 
d="M306 729q14 8 29 10t27 -12l26 -32q11 -14 10.5 -21t-15.5 -13l-174 -73q-14 -5 -23 -6t-15 8l-14 18q-10 12 -10 19t11 13zM40 317q0 105 59 160.5t173 55.5q60 0 103.5 -16t72 -44t42 -66t13.5 -81v-61q0 -20 -9.5 -31.5t-35.5 -11.5h-302v-37q0 -49 29.5 -74.5
t84.5 -25.5q45 0 73.5 14t44.5 39q12 17 22.5 19.5t28.5 -7.5l35 -19q34 -16 12 -50q-27 -45 -79 -70.5t-137 -25.5q-62 0 -105.5 16t-71 44.5t-40.5 68t-13 85.5v118zM387 333q0 49 -29 75.5t-86 26.5t-86.5 -26.5t-29.5 -75.5v-22h231v22z" />
    <glyph glyph-name="ecircumflex" unicode="&#xea;" horiz-adv-x="537" 
d="M281 728q8 0 14 -0.5t12 -3t12.5 -8t15.5 -14.5l99 -96q9 -10 7 -17t-21 -7h-44q-19 0 -28.5 2.5t-19.5 13.5l-57 56l-58 -56q-12 -11 -20 -13.5t-27 -2.5h-40q-20 0 -22 7t7 17l100 96q9 9 15 14t12 8t13 3.5t18 0.5h12zM40 317q0 105 59 160.5t173 55.5q60 0 103.5 -16
t72 -44t42 -66t13.5 -81v-61q0 -20 -9.5 -31.5t-35.5 -11.5h-302v-37q0 -49 29.5 -74.5t84.5 -25.5q45 0 73.5 14t44.5 39q12 17 22.5 19.5t28.5 -7.5l35 -19q34 -16 12 -50q-27 -45 -79 -70.5t-137 -25.5q-62 0 -105.5 16t-71 44.5t-40.5 68t-13 85.5v118zM387 333
q0 49 -29 75.5t-86 26.5t-86.5 -26.5t-29.5 -75.5v-22h231v22z" />
    <glyph glyph-name="edieresis" unicode="&#xeb;" horiz-adv-x="537" 
d="M175 709q30 0 41.5 -11.5t11.5 -40.5v-9q0 -29 -11.5 -40.5t-41.5 -11.5h-7q-30 0 -41 11.5t-11 40.5v9q0 29 11 40.5t41 11.5h7zM375 709q30 0 41 -11.5t11 -40.5v-9q0 -29 -11 -40.5t-41 -11.5h-6q-31 0 -42 11.5t-11 40.5v9q0 29 11 40.5t42 11.5h6zM40 317
q0 105 59 160.5t173 55.5q60 0 103.5 -16t72 -44t42 -66t13.5 -81v-61q0 -20 -9.5 -31.5t-35.5 -11.5h-302v-37q0 -49 29.5 -74.5t84.5 -25.5q45 0 73.5 14t44.5 39q12 17 22.5 19.5t28.5 -7.5l35 -19q34 -16 12 -50q-27 -45 -79 -70.5t-137 -25.5q-62 0 -105.5 16t-71 44.5
t-40.5 68t-13 85.5v118zM387 333q0 49 -29 75.5t-86 26.5t-86.5 -26.5t-29.5 -75.5v-22h231v22z" />
    <glyph glyph-name="igrave" unicode="&#xec;" horiz-adv-x="231" 
d="M41 726q13 14 28 12.5t29 -10.5l124 -88q11 -7 11.5 -13.5t-9.5 -19.5l-14 -18q-7 -8 -16 -7.5t-23 6.5l-151 72q-15 6 -15 13t11 21zM143 518q17 0 24 -6.5t7 -23.5v-457q0 -17 -7 -24t-24 -7h-55q-17 0 -23.5 7t-6.5 24v457q0 17 6.5 23.5t23.5 6.5h55z" />
    <glyph glyph-name="iacute" unicode="&#xed;" horiz-adv-x="231" 
d="M137 728q14 9 29 10.5t27 -12.5l26 -32q11 -14 10.5 -21t-15.5 -13l-150 -72q-14 -6 -23.5 -6.5t-15.5 7.5l-14 18q-10 13 -9.5 19.5t11.5 13.5zM143 518q17 0 23.5 -6.5t6.5 -23.5v-457q0 -17 -6.5 -24t-23.5 -7h-55q-17 0 -24 7t-7 24v457q0 17 7 23.5t24 6.5h55z" />
    <glyph glyph-name="icircumflex" unicode="&#xee;" horiz-adv-x="231" 
d="M258 608q8 -10 6.5 -17.5t-21.5 -7.5h-40q-19 0 -29.5 2t-18.5 15l-40 55l-43 -55q-9 -14 -18.5 -15.5t-27.5 -1.5h-39q-19 0 -20.5 7.5t6.5 17.5l80 94q8 10 14.5 15t13 7.5t13.5 3t18 0.5h11q18 0 28 -3.5t26 -22.5zM143 518q17 0 23.5 -6.5t6.5 -23.5v-457
q0 -17 -6.5 -24t-23.5 -7h-55q-17 0 -24 7t-7 24v457q0 17 7 23.5t24 6.5h55z" />
    <glyph glyph-name="idieresis" unicode="&#xef;" horiz-adv-x="231" 
d="M33 712q30 0 41.5 -11.5t11.5 -40.5v-9q0 -29 -11.5 -40.5t-41.5 -11.5h-7q-30 0 -41 11.5t-11 40.5v9q0 29 11 40.5t41 11.5h7zM205 712q30 0 41 -11.5t11 -40.5v-9q0 -29 -11 -40.5t-41 -11.5h-7q-30 0 -41.5 11.5t-11.5 40.5v9q0 29 11.5 40.5t41.5 11.5h7zM143 518
q17 0 23.5 -6.5t6.5 -23.5v-457q0 -17 -6.5 -24t-23.5 -7h-55q-17 0 -24 7t-7 24v457q0 17 7 23.5t24 6.5h55z" />
    <glyph glyph-name="eth" unicode="&#xf0;" horiz-adv-x="554" 
d="M392 748q7 7 11 7t12 -6l32 -24q8 -6 8 -10.5t-7 -11.5l-32 -36q45 -43 65 -109.5t20 -160.5v-209q0 -95 -58 -149t-172 -54q-115 0 -173 54t-58 149v114q0 47 14.5 84.5t41.5 64t65 40.5t85 14q58 0 92.5 -14.5t52.5 -40.5q-2 43 -14 75.5t-36 55.5l-42 -46
q-7 -7 -11 -7t-12 5l-29 21q-13 10 -1 23l35 39q-51 21 -131 21q-19 0 -25.5 6.5t-7.5 23.5l-1 45q0 17 6.5 24t24.5 7q132 0 209 -37zM385 302q0 48 -28.5 73t-85.5 25t-85.5 -25t-28.5 -73v-114q0 -47 28.5 -72.5t85.5 -25.5t85.5 25.5t28.5 72.5v114z" />
    <glyph glyph-name="ntilde" unicode="&#xf1;" horiz-adv-x="553" 
d="M408 724q11 0 15 -4.5t4 -14.5q0 -62 -20 -87t-64 -25q-24 0 -41.5 9t-31.5 20t-27 20t-29 9q-24 0 -24 -38q0 -20 -18 -20h-33q-19 0 -19 20q0 62 21 86.5t62 24.5q26 0 44 -9t32 -19.5t27 -19.5t28 -9q24 0 24 38q0 10 3.5 14.5t14.5 4.5h32zM95 499q30 12 77.5 23
t119.5 11q107 0 157.5 -52.5t50.5 -148.5v-301q0 -17 -7 -24t-24 -7h-55q-17 0 -23.5 7t-6.5 24v298q0 98 -109 98q-29 0 -52.5 -4t-43.5 -9q-7 -3 -7 -10v-373q0 -17 -6.5 -24t-23.5 -7h-55q-17 0 -24 7t-7 24v411q0 24 7.5 35.5t31.5 21.5z" />
    <glyph glyph-name="ograve" unicode="&#xf2;" 
d="M185 727q12 14 26.5 12t29.5 -11l147 -88q12 -6 12 -13t-10 -19l-14 -19q-6 -8 -15 -7.5t-24 6.5l-174 73q-14 5 -14.5 12.5t10.5 21.5zM41 333q0 94 59 147t171 53q113 0 172 -53t59 -147v-148q0 -94 -59 -147t-172 -53q-112 0 -171 53t-59 147v148zM386 333
q0 46 -29.5 70.5t-85.5 24.5q-55 0 -84.5 -24.5t-29.5 -70.5v-148q0 -45 29.5 -70t84.5 -25q56 0 85.5 25t29.5 70v148z" />
    <glyph glyph-name="oacute" unicode="&#xf3;" 
d="M305 728q15 9 29.5 11t27.5 -12l25 -32q11 -14 11 -21.5t-15 -12.5l-174 -73q-14 -6 -23 -6.5t-16 7.5l-14 19q-10 12 -10 19t12 13zM41 333q0 94 59 147t171 53q113 0 172 -53t59 -147v-148q0 -94 -59 -147t-172 -53q-112 0 -171 53t-59 147v148zM386 333
q0 46 -29.5 70.5t-85.5 24.5q-55 0 -84.5 -24.5t-29.5 -70.5v-148q0 -45 29.5 -70t84.5 -25q56 0 85.5 25t29.5 70v148z" />
    <glyph glyph-name="ocircumflex" unicode="&#xf4;" 
d="M280 728q17 0 26.5 -4t27.5 -23l99 -95q9 -10 7 -17.5t-21 -7.5h-44q-18 0 -27.5 3t-20.5 14l-56 56l-59 -56q-11 -12 -19.5 -14.5t-26.5 -2.5h-41q-19 0 -21 7.5t7 17.5l99 95q9 9 15 14.5t12 8.5t13 3.5t18 0.5h12zM41 333q0 94 59 147t171 53q113 0 172 -53t59 -147
v-148q0 -94 -59 -147t-172 -53q-112 0 -171 53t-59 147v148zM386 333q0 46 -29.5 70.5t-85.5 24.5q-55 0 -84.5 -24.5t-29.5 -70.5v-148q0 -45 29.5 -70t84.5 -25q56 0 85.5 25t29.5 70v148z" />
    <glyph glyph-name="otilde" unicode="&#xf5;" 
d="M401 724q11 0 15 -4.5t4 -14.5q0 -62 -20 -87t-64 -25q-24 0 -41.5 9t-31.5 19.5t-27 19.5t-29 9q-24 0 -24 -38q0 -19 -18 -19h-33q-19 0 -19 19q0 63 21 87.5t62 24.5q26 0 44 -9t32 -19.5t27 -19.5t28 -9q24 0 24 38q0 10 3.5 14.5t14.5 4.5h32zM41 333q0 94 59 147
t171 53q113 0 172 -53t59 -147v-148q0 -94 -59 -147t-172 -53q-112 0 -171 53t-59 147v148zM386 333q0 46 -29.5 70.5t-85.5 24.5q-55 0 -84.5 -24.5t-29.5 -70.5v-148q0 -45 29.5 -70t84.5 -25q56 0 85.5 25t29.5 70v148z" />
    <glyph glyph-name="odieresis" unicode="&#xf6;" 
d="M174 709q30 0 41.5 -11.5t11.5 -40.5v-9q0 -29 -11.5 -40.5t-41.5 -11.5h-7q-29 0 -40 11.5t-11 40.5v9q0 29 11 40.5t40 11.5h7zM375 709q29 0 40.5 -11.5t11.5 -40.5v-9q0 -29 -11.5 -40.5t-40.5 -11.5h-7q-30 0 -41.5 11.5t-11.5 40.5v9q0 29 11.5 40.5t41.5 11.5h7z
M41 333q0 94 59 147t171 53q113 0 172 -53t59 -147v-148q0 -94 -59 -147t-172 -53q-112 0 -171 53t-59 147v148zM386 333q0 46 -29.5 70.5t-85.5 24.5q-55 0 -84.5 -24.5t-29.5 -70.5v-148q0 -45 29.5 -70t84.5 -25q56 0 85.5 25t29.5 70v148z" />
    <glyph glyph-name="divide" unicode="&#xf7;" horiz-adv-x="552" 
d="M280 579q36 0 50 -14t14 -50v-9q0 -37 -14 -50.5t-50 -13.5h-7q-37 0 -50.5 13.5t-13.5 50.5v9q0 36 13.5 50t50.5 14h7zM478 381q20 0 27 -7t7 -27v-44q0 -19 -7 -26.5t-27 -7.5h-403q-20 0 -27.5 7.5t-7.5 26.5v44q0 20 7.5 27t27.5 7h403zM280 209q36 0 50 -13.5
t14 -50.5v-9q0 -36 -14 -50t-50 -14h-7q-37 0 -50.5 14t-13.5 50v9q0 37 13.5 50.5t50.5 13.5h7z" />
    <glyph glyph-name="oslash" unicode="&#xf8;" 
d="M481 552q11 0 5 -11l-40 -64q28 -26 42 -62.5t14 -81.5v-148q0 -94 -59 -147t-172 -53q-71 0 -122 24l-21 -34q-5 -7 -8 -8.5t-14 -1.5h-45q-12 0 -5 11l42 66q-57 52 -57 143v148q0 94 59 147t171 53q72 0 123 -23l21 32q5 7 8.5 8.5t11.5 1.5h46zM335 416
q-27 12 -64 12q-55 0 -84.5 -24.5t-29.5 -70.5v-148q0 -19 11 -33zM208 103q28 -13 63 -13q56 0 85.5 25t29.5 70v148q0 19 -10 34z" />
    <glyph glyph-name="ugrave" unicode="&#xf9;" horiz-adv-x="553" 
d="M189 727q12 14 26.5 12t29.5 -11l147 -88q12 -6 12 -13t-10 -19l-14 -19q-6 -8 -15 -7.5t-24 6.5l-174 73q-14 5 -14.5 12.5t10.5 21.5zM466 518q17 0 24 -6.5t7 -23.5v-412q0 -23 -7.5 -34.5t-31.5 -21.5q-30 -12 -77 -23.5t-119 -11.5q-108 0 -158.5 53t-50.5 148v302
q0 17 7 23.5t24 6.5h55q17 0 23.5 -6.5t6.5 -23.5v-298q0 -99 109 -99q29 0 50.5 3t41.5 9q11 4 11 17v368q0 17 7 23.5t24 6.5h54z" />
    <glyph glyph-name="uacute" unicode="&#xfa;" horiz-adv-x="553" 
d="M309 728q15 9 29.5 11t27.5 -12l25 -32q11 -14 11 -21.5t-15 -12.5l-174 -73q-14 -6 -23 -6.5t-16 7.5l-14 19q-10 12 -10 19t12 13zM466 518q17 0 24 -6.5t7 -23.5v-412q0 -23 -7.5 -34.5t-31.5 -21.5q-30 -12 -77 -23.5t-119 -11.5q-108 0 -158.5 53t-50.5 148v302
q0 17 7 23.5t24 6.5h55q17 0 23.5 -6.5t6.5 -23.5v-298q0 -99 109 -99q29 0 50.5 3t41.5 9q11 4 11 17v368q0 17 7 23.5t24 6.5h54z" />
    <glyph glyph-name="ucircumflex" unicode="&#xfb;" horiz-adv-x="553" 
d="M285 732q17 0 26.5 -3.5t28.5 -22.5l101 -98q9 -10 7.5 -17.5t-21.5 -7.5h-45q-19 0 -28.5 3t-20.5 14l-58 57l-60 -57q-12 -12 -20 -14.5t-27 -2.5h-42q-20 0 -22 7.5t7 17.5l102 98q9 9 15.5 14.5t12.5 8t13 3t18 0.5h13zM466 518q17 0 24 -6.5t7 -23.5v-412
q0 -23 -7.5 -34.5t-31.5 -21.5q-30 -12 -77 -23.5t-119 -11.5q-108 0 -158.5 53t-50.5 148v302q0 17 7 23.5t24 6.5h55q17 0 23.5 -6.5t6.5 -23.5v-298q0 -99 109 -99q29 0 50.5 3t41.5 9q11 4 11 17v368q0 17 7 23.5t24 6.5h54z" />
    <glyph glyph-name="udieresis" unicode="&#xfc;" horiz-adv-x="553" 
d="M178 709q30 0 41.5 -11.5t11.5 -40.5v-9q0 -29 -11.5 -40.5t-41.5 -11.5h-7q-29 0 -40 11.5t-11 40.5v9q0 29 11 40.5t40 11.5h7zM379 709q29 0 40.5 -11.5t11.5 -40.5v-9q0 -29 -11.5 -40.5t-40.5 -11.5h-7q-30 0 -41.5 11.5t-11.5 40.5v9q0 29 11.5 40.5t41.5 11.5h7z
M466 518q17 0 24 -6.5t7 -23.5v-412q0 -23 -7.5 -34.5t-31.5 -21.5q-30 -12 -77 -23.5t-119 -11.5q-108 0 -158.5 53t-50.5 148v302q0 17 7 23.5t24 6.5h55q17 0 23.5 -6.5t6.5 -23.5v-298q0 -99 109 -99q29 0 50.5 3t41.5 9q11 4 11 17v368q0 17 7 23.5t24 6.5h54z" />
    <glyph glyph-name="yacute" unicode="&#xfd;" horiz-adv-x="555" 
d="M309 728q15 9 29.5 11t27.5 -12l25 -32q11 -14 11 -21.5t-15 -12.5l-174 -73q-14 -6 -23 -6.5t-16 7.5l-14 19q-10 12 -10 19t12 13zM466 518q17 0 24 -6.5t7 -23.5v-505q0 -49 -12.5 -89.5t-39 -69t-68 -44t-100.5 -15.5q-81 0 -131 25.5t-77 70.5q-21 33 13 50l38 21
q18 9 28.5 6.5t21.5 -18.5q16 -25 40 -38t65 -13q106 0 106 108v47q-23 -5 -52.5 -9.5t-66.5 -4.5q-108 0 -158.5 53t-50.5 148v277q0 17 7 23.5t24 6.5h55q17 0 23.5 -6.5t6.5 -23.5v-273q0 -99 109 -99q32 0 57.5 4.5t45.5 9.5v358q0 17 7 23.5t24 6.5h54z" />
    <glyph glyph-name="thorn" unicode="&#xfe;" horiz-adv-x="544" 
d="M58 708q0 17 7 24t24 7h55q17 0 23.5 -7t6.5 -24v-189q21 5 50.5 9t66.5 4q109 0 160 -52.5t51 -149.5v-136q0 -102 -54.5 -155.5t-168.5 -53.5q-31 0 -58 6.5t-47 11.5v-192q0 -17 -6.5 -24t-23.5 -7h-55q-17 0 -24 7t-7 24v897zM386 326q0 49 -28.5 74.5t-82.5 25.5
q-32 0 -57 -5t-44 -10v-305q18 -5 43 -10t54 -5q60 0 87.5 26t27.5 80v129z" />
    <glyph glyph-name="ydieresis" unicode="&#xff;" horiz-adv-x="555" 
d="M178 709q30 0 41.5 -11.5t11.5 -40.5v-9q0 -29 -11.5 -40.5t-41.5 -11.5h-7q-29 0 -40 11.5t-11 40.5v9q0 29 11 40.5t40 11.5h7zM379 709q29 0 40.5 -11.5t11.5 -40.5v-9q0 -29 -11.5 -40.5t-40.5 -11.5h-7q-30 0 -41.5 11.5t-11.5 40.5v9q0 29 11.5 40.5t41.5 11.5h7z
M466 518q17 0 24 -6.5t7 -23.5v-505q0 -49 -12.5 -89.5t-39 -69t-68 -44t-100.5 -15.5q-81 0 -131 25.5t-77 70.5q-21 33 13 50l38 21q18 9 28.5 6.5t21.5 -18.5q16 -25 40 -38t65 -13q106 0 106 108v47q-23 -5 -52.5 -9.5t-66.5 -4.5q-108 0 -158.5 53t-50.5 148v277
q0 17 7 23.5t24 6.5h55q17 0 23.5 -6.5t6.5 -23.5v-273q0 -99 109 -99q32 0 57.5 4.5t45.5 9.5v358q0 17 7 23.5t24 6.5h54z" />
    <glyph glyph-name="dotlessi" unicode="&#x131;" horiz-adv-x="231" 
d="M143 518q17 0 24 -6.5t7 -23.5v-457q0 -17 -7 -24t-24 -7h-55q-17 0 -23.5 7t-6.5 24v457q0 17 6.5 23.5t23.5 6.5h55v0z" />
    <glyph glyph-name="OE" unicode="&#x152;" horiz-adv-x="859" 
d="M792 117q20 0 27 -7.5t7 -26.5v-49q0 -19 -7 -26.5t-27 -7.5h-345q-50 -15 -112 -15q-139 0 -212.5 70t-73.5 191v218q0 121 73.5 191t212.5 70q64 0 112 -15h334q20 0 27 -7.5t7 -26.5v-49q0 -19 -7 -26.5t-27 -7.5h-243v-175h195q20 0 27 -7.5t7 -26.5v-49
q0 -19 -7 -26.5t-27 -7.5h-195v-184h254zM175 245q0 -70 41 -106.5t119 -36.5q23 0 43.5 3.5t34.5 8.5v482q-15 5 -35 8.5t-43 3.5q-78 0 -119 -36.5t-41 -106.5v-220z" />
    <glyph glyph-name="oe" unicode="&#x153;" horiz-adv-x="829" 
d="M419 475q26 28 65 43t93 15q57 0 98.5 -16t68 -44t39 -65.5t12.5 -80.5v-62q0 -20 -9.5 -31.5t-35.5 -11.5h-275v-37q0 -100 102 -100q39 0 63 14t40 39q12 16 22.5 19t27.5 -7l36 -19q33 -18 11 -50q-26 -45 -73 -70.5t-128 -25.5q-56 0 -94.5 15t-63.5 43
q-26 -28 -66 -43t-94 -15q-106 0 -161 53t-55 146v149q0 94 55 147t161 53q54 0 94.5 -15t66.5 -43zM679 333q0 49 -24.5 75.5t-77.5 26.5q-52 0 -77 -26.5t-25 -75.5v-22h204v22zM359 333q0 46 -25 70.5t-76 24.5q-49 0 -74.5 -24.5t-25.5 -70.5v-148q0 -45 25.5 -70
t74.5 -25q51 0 76 25t25 70v148z" />
    <glyph glyph-name="Scaron" unicode="&#x160;" horiz-adv-x="633" 
d="M467 917q20 0 22 -7.5t-7 -17.5l-102 -98q-9 -10 -15.5 -15t-12.5 -7.5t-12 -3t-15 -0.5h-12q-11 0 -18 0.5t-13.5 3t-13 8t-15.5 14.5l-101 98q-9 10 -7.5 17.5t21.5 7.5h42q19 0 27.5 -2.5t19.5 -14.5l61 -57l57 57q11 11 20.5 14t28.5 3h45zM43 506q0 48 17.5 88
t52 69t85.5 45.5t119 16.5q107 0 167.5 -38.5t95.5 -112.5q8 -17 3.5 -27.5t-22.5 -18.5l-55 -24q-17 -8 -25.5 -4t-17.5 21q-20 40 -53.5 62t-92.5 22q-145 0 -145 -92q0 -27 14 -44t38 -27t55.5 -15t65.5 -9q44 -5 89.5 -14.5t82 -32t59.5 -61t23 -101.5q0 -50 -18.5 -91
t-55 -70.5t-89.5 -46t-122 -16.5q-58 0 -102.5 11t-77.5 32t-56.5 52t-38.5 72q-7 19 -2 28.5t23 15.5l55 20q17 6 26 1.5t17 -22.5q19 -45 58 -69t98 -24q78 0 118.5 25t40.5 79q0 26 -13 42.5t-34.5 26.5t-50.5 15.5t-60 8.5q-46 5 -94 13.5t-87.5 29.5t-65 59.5
t-25.5 104.5z" />
    <glyph glyph-name="scaron" unicode="&#x161;" horiz-adv-x="504" 
d="M386 711q18 0 20 -7t-6 -16l-92 -88q-9 -9 -15 -14t-11 -7t-10.5 -2.5t-13.5 -0.5h-11q-10 0 -16.5 0.5t-12 3t-11.5 7t-14 13.5l-92 89q-8 8 -6 15t19 7h38q17 0 24.5 -2.5t18.5 -13.5l55 -51l52 51q9 11 18 13.5t26 2.5h40zM38 372q0 72 51 116.5t155 44.5
q88 0 139 -29t75 -78q9 -17 5 -27t-21 -18l-45 -18q-17 -8 -24.5 -5t-17.5 19q-13 23 -36.5 37.5t-71.5 14.5q-49 0 -71.5 -13.5t-22.5 -40.5q0 -35 29.5 -46t87.5 -16q45 -5 82.5 -13.5t64.5 -26t42 -46.5t15 -75q0 -74 -54.5 -120.5t-161.5 -46.5q-89 0 -144.5 31
t-78.5 90q-12 31 20 42l45 14q15 5 24 1.5t17 -20.5q12 -29 39.5 -42t73.5 -13q106 0 106 59q0 35 -29.5 46.5t-90.5 17.5q-37 4 -73 11t-64.5 24.5t-46.5 47t-18 78.5z" />
    <glyph glyph-name="Ydieresis" unicode="&#x178;" horiz-adv-x="643" 
d="M227 888q30 0 41.5 -11.5t11.5 -40.5v-10q0 -29 -11.5 -40.5t-41.5 -11.5h-6q-30 0 -41 11.5t-11 40.5v10q0 29 11 40.5t41 11.5h6zM428 888q30 0 41 -11.5t11 -40.5v-10q0 -29 -11 -40.5t-41 -11.5h-7q-30 0 -41.5 11.5t-11.5 40.5v10q0 29 11.5 40.5t41.5 11.5h7z
M611 710q19 0 22 -10t-5 -24l-244 -396v-246q0 -19 -7.5 -26.5t-26.5 -7.5h-57q-20 0 -27 7.5t-7 26.5v248l-245 394q-8 14 -4.5 24t22.5 10h70q30 0 42.5 -4t23.5 -26l155 -270l156 270q6 11 11.5 17t13 9t17.5 3.5t25 0.5h65z" />
    <glyph glyph-name="Zcaron" unicode="&#x17d;" horiz-adv-x="588" 
d="M448 907q20 0 22 -7.5t-7 -17.5l-102 -97q-9 -10 -15.5 -15.5t-12.5 -8t-12 -3t-15 -0.5h-12q-11 0 -18 0.5t-13.5 3t-13 8t-15.5 15.5l-101 97q-9 10 -7 17.5t21 7.5h42q19 0 27.5 -2.5t19.5 -14.5l61 -57l57 57q11 12 20.5 14.5t28.5 2.5h45zM514 710q19 0 26.5 -7.5
t7.5 -26.5v-48q0 -22 -11 -36l-346 -475h329q20 0 27 -7t7 -27v-49q0 -19 -7 -26.5t-27 -7.5h-452q-19 0 -26.5 7.5t-7.5 26.5v49q0 11 3 19t9 16l345 475h-318q-19 0 -26.5 7.5t-7.5 26.5v49q0 19 7.5 26.5t26.5 7.5h441z" />
    <glyph glyph-name="zcaron" unicode="&#x17e;" horiz-adv-x="471" 
d="M369 711q17 0 19 -7t-6 -16l-91 -89q-9 -9 -15 -13.5t-11 -7t-10.5 -3t-13.5 -0.5h-11q-10 0 -16.5 0.5t-12 3t-11.5 7t-14 13.5l-91 89q-8 9 -6 16t19 7h38q17 0 24 -2.5t18 -13.5l54 -52l52 52q10 11 19 13.5t26 2.5h40zM411 105q17 0 23.5 -7t6.5 -24v-43
q0 -17 -6.5 -24t-23.5 -7h-350q-17 0 -24 7t-7 24v43q0 12 2 17.5t9 13.5l245 308h-220q-17 0 -24 7t-7 24v44q0 17 7 23.5t24 6.5h340q17 0 23.5 -6.5t6.5 -23.5v-44q0 -11 -2 -18t-9 -15l-247 -306h233z" />
    <glyph glyph-name="florin" unicode="&#x192;" horiz-adv-x="461" 
d="M183 522q5 51 20 91t42 68.5t68.5 43.5t100.5 15q18 0 24.5 -7t6.5 -25v-44q0 -18 -6.5 -25t-24.5 -7q-62 0 -86 -30.5t-29 -82.5l-11 -108h103q17 0 24 -7t7 -24v-46q0 -17 -7 -24t-24 -7h-115l-31 -305q-5 -51 -20 -91t-42.5 -68.5t-69 -43.5t-99.5 -15q-18 0 -25 7
t-7 25v44q0 18 7 25t25 7q61 0 85 30.5t29 83.5l32 301h-98q-17 0 -23.5 7t-6.5 24v46q0 17 6.5 24t23.5 7h109l12 111v0z" />
    <glyph glyph-name="uni0237" unicode="&#x237;" horiz-adv-x="233" 
d="M143 518q18 0 24.5 -6.5t6.5 -23.5v-495q0 -106 -54.5 -164.5t-173.5 -58.5q-18 0 -25 7t-7 25v44q0 18 7 25t25 7q63 0 87.5 31t24.5 87v492q0 17 7 23.5t25 6.5h53v0z" />
    <glyph glyph-name="circumflex" unicode="&#x2c6;" horiz-adv-x="394" 
d="M203 734q17 0 26.5 -4t28.5 -23l102 -98q9 -9 7 -17t-22 -8h-45q-19 0 -28.5 3t-20.5 15l-58 57l-60 -57q-11 -13 -19.5 -15.5t-27.5 -2.5h-42q-20 0 -22 8t8 17l101 98q9 9 15.5 14.5t12.5 8.5t13.5 3.5t18.5 0.5h12v0z" />
    <glyph glyph-name="tilde" unicode="&#x2dc;" horiz-adv-x="305" 
d="M287 725q11 0 15 -4.5t4 -14.5q0 -62 -20 -86.5t-64 -24.5q-24 0 -41.5 9t-31.5 19.5t-27 19.5t-29 9q-24 0 -24 -38q0 -19 -18 -19h-33q-19 0 -19 19q0 62 21 86.5t62 24.5q26 0 44 -9t32 -19.5t27 -19.5t28 -9q24 0 24 38q0 10 3.5 14.5t14.5 4.5h32v0z" />
    <glyph glyph-name="endash" unicode="&#x2013;" horiz-adv-x="567" 
d="M476 323q19 0 26.5 -7.5t7.5 -26.5v-44q0 -20 -7.5 -27t-26.5 -7h-384q-20 0 -27 7t-7 27v44q0 19 7 26.5t27 7.5h384v0z" />
    <glyph glyph-name="emdash" unicode="&#x2014;" horiz-adv-x="766" 
d="M675 323q19 0 26.5 -7.5t7.5 -26.5v-45q0 -19 -7.5 -26.5t-26.5 -7.5h-584q-20 0 -27 7.5t-7 26.5v45q0 19 7 26.5t27 7.5h584v0z" />
    <glyph glyph-name="quoteleft" unicode="&#x2018;" horiz-adv-x="225" 
d="M102 679q6 17 14 24t25 7h21q15 0 19 -4.5t2 -18.5l-25 -185q-3 -22 -11.5 -29.5t-29.5 -7.5h-44q-24 0 -31.5 9t-0.5 28l61 177v0z" />
    <glyph glyph-name="quoteright" unicode="&#x2019;" horiz-adv-x="219" 
d="M129 496q-6 -17 -14 -24t-25 -7h-21q-15 0 -19 5t-2 19l25 185q3 21 11.5 28.5t29.5 7.5h44q24 0 31.5 -9t0.5 -27l-61 -178v0z" />
    <glyph glyph-name="quotesinglbase" unicode="&#x201a;" horiz-adv-x="207" 
d="M141 -115q-2 -17 -9 -24t-24 -7h-27q-17 0 -24 7t-7 24v194q0 17 7 24t24 7h47q17 0 25 -7t6 -24l-18 -194v0z" />
    <glyph glyph-name="quotedblleft" unicode="&#x201c;" horiz-adv-x="378" 
d="M102 679q6 17 14 24t25 7h21q15 0 19 -4.5t2 -18.5l-25 -185q-3 -22 -11.5 -29.5t-29.5 -7.5h-44q-24 0 -31.5 9t-0.5 28zM255 679q6 17 13.5 24t24.5 7h22q15 0 19 -4.5t2 -18.5l-25 -185q-3 -22 -11.5 -29.5t-29.5 -7.5h-44q-24 0 -31.5 9t-0.5 28z" />
    <glyph glyph-name="quotedblright" unicode="&#x201d;" horiz-adv-x="372" 
d="M129 496q-6 -17 -14 -24t-25 -7h-21q-15 0 -19 5t-2 19l25 185q3 21 11.5 28.5t29.5 7.5h44q24 0 31.5 -9t0.5 -27zM282 496q-6 -17 -14 -24t-25 -7h-21q-15 0 -19 5t-2 19l25 185q3 21 11.5 28.5t29.5 7.5h44q24 0 31.5 -9t0.5 -27z" />
    <glyph glyph-name="quotedblbase" unicode="&#x201e;" horiz-adv-x="373" 
d="M110 -91q-6 -17 -13.5 -24t-24.5 -7h-22q-14 0 -18.5 4.5t-2.5 18.5l25 186q3 21 12 28.5t29 7.5h45q44 0 31 -36zM263 -91q-6 -17 -13.5 -24t-24.5 -7h-22q-15 0 -19 4.5t-2 18.5l25 186q3 21 11.5 28.5t29.5 7.5h44q24 0 31.5 -9t0.5 -27z" />
    <glyph glyph-name="dagger" unicode="&#x2020;" horiz-adv-x="524" 
d="M463 503q19 0 26.5 -7.5t7.5 -26.5v-49q0 -19 -7.5 -26.5t-26.5 -7.5h-142v-452q0 -19 -7.5 -26.5t-26.5 -7.5h-49q-20 0 -27 7.5t-7 26.5v452h-142q-20 0 -27 7.5t-7 26.5v49q0 19 7 26.5t27 7.5h142v173q0 19 7 26.5t27 7.5h49q19 0 26.5 -7.5t7.5 -26.5v-173h142v0z
" />
    <glyph glyph-name="daggerdbl" unicode="&#x2021;" horiz-adv-x="558" 
d="M303 710q20 0 27 -7.5t7 -26.5v-173h142q20 0 27 -7.5t7 -26.5v-49q0 -19 -7 -26.5t-27 -7.5h-142v-162h143q19 0 26.5 -7.5t7.5 -26.5v-49q0 -20 -7.5 -27t-26.5 -7h-143v-173q0 -19 -7 -26.5t-27 -7.5h-49q-19 0 -26.5 7.5t-7.5 26.5v173h-141q-20 0 -27 7t-7 27v49
q0 19 7 26.5t27 7.5h141v162h-142q-19 0 -26.5 7.5t-7.5 26.5v49q0 19 7.5 26.5t26.5 7.5h142v173q0 19 7.5 26.5t26.5 7.5h49v0z" />
    <glyph glyph-name="bullet" unicode="&#x2022;" horiz-adv-x="366" 
d="M183 149q-50 0 -82 33t-32 82t32 81.5t82 32.5q49 0 81.5 -32.5t32.5 -81.5q0 -24 -8.5 -45t-24 -36.5t-36.5 -24.5t-45 -9z" />
    <glyph glyph-name="ellipsis" unicode="&#x2026;" horiz-adv-x="704" 
d="M117 130q37 0 50.5 -14t13.5 -50v-9q0 -37 -13.5 -50.5t-50.5 -13.5h-7q-37 0 -50.5 13.5t-13.5 50.5v9q0 36 13.5 50t50.5 14h7zM356 130q36 0 50 -14t14 -50v-9q0 -37 -14 -50.5t-50 -13.5h-8q-36 0 -50 13.5t-14 50.5v9q0 36 14 50t50 14h8zM594 130q37 0 50.5 -14
t13.5 -50v-9q0 -37 -13.5 -50.5t-50.5 -13.5h-7q-37 0 -50.5 13.5t-13.5 50.5v9q0 36 13.5 50t50.5 14h7z" />
    <glyph glyph-name="perthousand" unicode="&#x2030;" horiz-adv-x="1189" 
d="M32 577q0 69 42.5 109t123.5 40t123.5 -40t42.5 -109v-71q0 -69 -42.5 -108t-123.5 -39t-123.5 39t-42.5 108v71zM694 710q17 0 21 -9.5t-5 -23.5l-476 -647q-8 -10 -13.5 -16t-12 -9t-16.5 -4t-25 -1h-39q-19 0 -23 10t6 24l476 648q7 9 12.5 14.5t12 8.5t15.5 4t23 1
h44zM267 572q0 61 -69 61t-69 -61v-60q0 -61 69 -61t69 61v60zM455 202q0 69 42.5 109t123.5 40t123.5 -40t42.5 -109v-71q0 -69 -42.5 -108t-123.5 -39t-123.5 39t-42.5 108v71zM827 202q0 69 42.5 109t123.5 40t123.5 -40t42.5 -109v-71q0 -69 -42.5 -108t-123.5 -39
t-123.5 39t-42.5 108v71zM690 197q0 61 -69 61t-69 -61v-59q0 -62 69 -62t69 62v59zM1062 197q0 61 -69 61t-69 -61v-59q0 -62 69 -62t69 62v59z" />
    <glyph glyph-name="guilsinglleft" unicode="&#x2039;" horiz-adv-x="353" 
d="M298 133q11 -11 11 -19.5t-11 -19.5l-36 -37q-11 -10 -19.5 -10.5t-19.5 10.5l-186 186q-11 11 -11 19.5t11 19.5l190 191q19 21 39 0l34 -35q11 -11 11 -19t-11 -19l-134 -135l132 -132v0z" />
    <glyph glyph-name="guilsinglright" unicode="&#x203a;" horiz-adv-x="353" 
d="M53 400q-11 11 -11 19t11 19l34 35q19 21 39 0l190 -191q11 -11 11 -19.5t-11 -19.5l-186 -186q-11 -11 -19.5 -10.5t-19.5 10.5l-36 37q-11 11 -11 19.5t11 19.5l132 132l-134 135v0z" />
    <glyph glyph-name="Euro" unicode="&#x20ac;" horiz-adv-x="735" 
d="M143 484q0 55 20 99.5t56.5 76t89.5 48.5t119 17q100 0 159 -29.5t91 -82.5q26 -40 -14 -59l-39 -20q-21 -11 -33 -8t-25 22q-3 5 -11 15t-24.5 20t-41.5 17.5t-62 7.5q-71 0 -114.5 -31t-43.5 -89v-18h252q18 0 23.5 -6t0.5 -23l-10 -32q-5 -17 -14 -23t-27 -6h-230v-60
h213q17 0 22.5 -6t0.5 -23l-10 -32q-5 -17 -14 -23t-27 -6h-180v-12q4 -59 46.5 -87.5t111.5 -28.5q37 0 62.5 7.5t42 18t25 21t10.5 15.5q13 19 25 22t33 -8l39 -20q39 -20 14 -60q-32 -53 -91 -83t-160 -30q-130 0 -204.5 58.5t-79.5 174.5v12h-92q-17 0 -22.5 6.5
t-0.5 23.5l10 32q5 17 14 22.5t26 5.5h65v60h-49q-17 0 -22.5 6.5t-0.5 23.5l10 32q5 17 14 22.5t27 5.5h20v14v0z" />
    <glyph glyph-name="trademark" unicode="&#x2122;" horiz-adv-x="623" 
d="M255 695q14 0 17.5 -4t3.5 -18v-20q0 -14 -3.5 -17.5t-17.5 -3.5h-64v-168q0 -13 -5 -17t-19 -4h-19q-13 0 -18 4t-5 17v168h-66q-15 0 -17.5 3.5t-2.5 17.5v20q0 14 2.5 18t17.5 4h196zM535 695q14 0 19 -4t5 -18v-209q0 -13 -3.5 -17t-17.5 -4h-21q-14 0 -18 4t-4 17
v63q0 9 1 23t3 29q-4 -7 -7 -12.5t-7 -10.5l-26 -39q-6 -8 -11 -12t-15 -4h-10q-9 0 -13.5 2.5t-10.5 9.5l-27 38q-4 5 -7.5 10t-6.5 10q2 -13 2 -24.5v-19.5v-63q0 -13 -3 -17t-17 -4h-21q-14 0 -18 4t-4 17v209q0 14 5 18t19 4h12q11 0 15.5 -3t10.5 -12l69 -106l69 105
q5 7 10 11.5t15 4.5h13z" />
    </font>
</defs>
</svg>
