<?xml version="1.0" standalone="no"?>
<!DOCTYPE svg PUBLIC "-//W3C//DTD SVG 1.1//EN" "http://www.w3.org/Graphics/SVG/1.1/DTD/svg11.dtd" >
<svg xmlns="http://www.w3.org/2000/svg" xmlns:xlink="http://www.w3.org/1999/xlink" version="1.1">
<metadata>
Created by FontForge 20150824 at Wed Aug 17 02:39:15 2016
 By Everything Fonts
Copyright (c) 2012 by Fontfabric LLC. All rights reserved.
</metadata>
<defs>
<font id="PantonW01SemiBold" horiz-adv-x="576" >
  <font-face 
    font-family="PantonW01SemiBold"
    font-weight="600"
    font-stretch="normal"
    units-per-em="1000"
    panose-1="1 0 0 0 0 0 0 0 0 0"
    ascent="800"
    descent="-200"
    x-height="516"
    cap-height="710"
    bbox="-89 -245 1153 918.68"
    underline-thickness="50"
    underline-position="-225"
    unicode-range="U+0020-2122"
  />
<missing-glyph horiz-adv-x="686" 
d="M610 27q0 -15 -6 -21t-20 -6h-477q-15 0 -20.5 6t-5.5 21v656q0 15 5.5 21t20.5 6h477q14 0 20 -6t6 -21v-656zM177 90h337v530h-337v-530z" />
    <glyph glyph-name=".notdef" horiz-adv-x="686" 
d="M610 27q0 -15 -6 -21t-20 -6h-477q-15 0 -20.5 6t-5.5 21v656q0 15 5.5 21t20.5 6h477q14 0 20 -6t6 -21v-656zM177 90h337v530h-337v-530z" />
    <glyph glyph-name=".null" horiz-adv-x="0" 
 />
    <glyph glyph-name="nonmarkingreturn" horiz-adv-x="333" 
 />
    <glyph glyph-name="glyph181" horiz-adv-x="371" 
 />
    <glyph glyph-name="glyph181" horiz-adv-x="371" 
 />
    <glyph glyph-name="space" unicode=" " horiz-adv-x="228" 
 />
    <glyph glyph-name="exclam" unicode="!" horiz-adv-x="222" 
d="M134 740q14 0 19.5 -5t4.5 -19l-11 -508q-1 -14 -5.5 -19t-18.5 -5h-24q-14 0 -18.5 5t-5.5 19l-10 508q-1 14 4.5 19t19.5 5h45zM114 103q29 0 40 -11t11 -40v-8q0 -29 -11 -39.5t-40 -10.5h-6q-29 0 -40 10.5t-11 39.5v8q0 29 11 40t40 11h6z" />
    <glyph glyph-name="quotedbl" unicode="&#x22;" horiz-adv-x="319" 
d="M131 485q-2 -14 -6 -17t-18 -3h-24q-14 0 -18 3t-4 17v204q0 14 4 17.5t18 3.5h37q13 0 18 -3.5t4 -17.5zM254 485q-1 -14 -5 -17t-18 -3h-25q-14 0 -18 3t-4 17v204q0 14 4 17.5t18 3.5h37q14 0 18.5 -3.5t3.5 -17.5z" />
    <glyph glyph-name="numbersign" unicode="#" horiz-adv-x="694" 
d="M643 490q14 0 17.5 -5t0.5 -19l-11 -36q-4 -13 -11 -17.5t-20 -4.5h-94l-43 -145h94q14 0 18 -5t0 -19l-11 -36q-5 -13 -11.5 -17.5t-20.5 -4.5h-94l-47 -157q-4 -13 -10 -18.5t-20 -5.5h-39q-25 0 -18 24l47 157h-140l-47 -157q-4 -13 -10.5 -18.5t-20.5 -5.5h-39
q-24 0 -17 24l47 157h-92q-25 0 -18 23l11 37q4 13 11 17.5t21 4.5h92l43 145h-93q-25 0 -18 23l11 37q4 13 11 17.5t21 4.5h92l44 146q4 13 10 18.5t20 5.5h39q25 0 18 -24l-45 -146h141l44 146q5 13 10.5 18.5t19.5 5.5h39q25 0 18 -24l-44 -146h94zM254 263h141l43 145
h-140z" />
    <glyph glyph-name="dollar" unicode="$" horiz-adv-x="591" 
d="M315 779q14 0 19 -5t5 -19v-57q39 -5 69 -16.5t53 -29.5t41.5 -43.5t33.5 -56.5q7 -14 3.5 -22.5t-18.5 -15.5l-38 -17q-14 -6 -21 -3t-15 17q-12 24 -25.5 42t-32 30.5t-42.5 19t-57 6.5q-75 0 -109.5 -26t-34.5 -81q0 -29 13.5 -47t36 -28t51.5 -15t61 -8
q42 -4 85 -11.5t78 -27.5t57 -56t22 -97q0 -85 -53 -136t-158 -62v-59q0 -14 -5 -19t-19 -5h-42q-14 0 -19 5t-5 19v58q-83 8 -133 51t-76 110q-10 26 17 36l38 14q15 5 22.5 1.5t13.5 -18.5q21 -51 57.5 -79t104.5 -28q160 0 160 110q0 31 -13.5 49.5t-36 29t-52 15.5
t-61.5 8q-42 4 -85.5 12.5t-78 28.5t-56.5 55t-22 94q0 84 49.5 135.5t151.5 60.5v57q0 14 5 19t19 5h42v0z" />
    <glyph glyph-name="percent" unicode="%" horiz-adv-x="816" 
d="M34 578q0 69 41.5 108.5t120.5 39.5t120.5 -39.5t41.5 -108.5v-73q0 -68 -41.5 -107t-120.5 -39t-120.5 39t-41.5 107v73zM687 710q14 0 17 -7.5t-5 -17.5l-486 -662q-11 -16 -20 -19.5t-32 -3.5h-30q-15 0 -18.5 8t4.5 19l487 661q11 15 19 18.5t29 3.5h35zM282 574
q0 38 -22 59t-64 21q-43 0 -65 -21t-22 -59v-64q0 -38 22 -59t65 -21q42 0 64 21t22 59v64zM457 203q0 69 41.5 108.5t120.5 39.5q80 0 121 -39.5t41 -108.5v-72q0 -69 -41 -108t-121 -39q-79 0 -120.5 39t-41.5 108v72zM706 199q0 38 -22 59t-65 21q-42 0 -64 -21t-22 -59
v-63q0 -38 22 -59t64 -21q43 0 65 21t22 59v63z" />
    <glyph glyph-name="ampersand" unicode="&#x26;" horiz-adv-x="669" 
d="M105 548q0 34 12.5 66t36 57t58.5 39.5t80 14.5q39 0 72 -13.5t57 -37t38 -54.5t14 -66q0 -68 -36 -109.5t-111 -75.5l-10 -5l154 -153l66 64q15 17 32 0l30 -31q7 -8 7 -14t-9 -14l-68 -67l124 -125q21 -24 -11 -24h-56q-13 0 -20.5 3t-15.5 12l-79 78
q-36 -33 -65.5 -54t-55.5 -33t-51 -16.5t-53 -4.5q-44 0 -81.5 15t-65 42t-43 64.5t-15.5 82.5q0 39 11.5 69.5t31 54.5t45.5 42t55 33q-32 34 -55 73t-23 87zM389 553q0 19 -7.5 35.5t-20 29.5t-30.5 20.5t-39 7.5q-48 0 -75 -30t-27 -69q0 -35 18.5 -62.5t50.5 -59.5
l30 15q22 10 40.5 20.5t32 23t20.5 29.5t7 40zM241 326q-55 -25 -82.5 -57.5t-27.5 -81.5q0 -25 9 -46.5t25 -37t38 -24.5t47 -9q21 0 40 5t38 15.5t39.5 26.5t44.5 39z" />
    <glyph glyph-name="quotesingle" unicode="'" horiz-adv-x="196" 
d="M131 485q-2 -14 -6 -17t-18 -3h-24q-14 0 -18 3t-4 17v204q0 14 4 17.5t18 3.5h37q13 0 18 -3.5t4 -17.5l-11 -204v0z" />
    <glyph glyph-name="parenleft" unicode="(" horiz-adv-x="270" 
d="M57 610q0 48 9.5 85.5t27.5 66t44 49.5t60 37q13 5 19.5 1.5t13.5 -16.5l16 -33q5 -13 2.5 -19t-15.5 -13q-43 -21 -66 -55t-23 -96v-524q0 -62 23 -96t66 -55q13 -7 16.5 -13.5t-3.5 -18.5l-16 -33q-7 -13 -13.5 -16.5t-19.5 1.5q-34 16 -60 37t-44 49.5t-27.5 66
t-9.5 85.5v510v0z" />
    <glyph glyph-name="parenright" unicode=")" horiz-adv-x="270" 
d="M39 833q7 13 13.5 16.5t19.5 -1.5q34 -16 60 -37t44 -49.5t27.5 -66t9.5 -85.5v-510q0 -48 -9.5 -85.5t-27.5 -66t-44 -49.5t-60 -37q-13 -5 -19.5 -1.5t-13.5 16.5l-16 33q-5 13 -2.5 19t15.5 13q43 21 66 55t23 96v524q0 62 -23 96t-66 55q-13 7 -15.5 13t2.5 19l16 33
v0z" />
    <glyph glyph-name="asterisk" unicode="*" horiz-adv-x="372" 
d="M200 673q16 0 13 -15l-9 -97l89 39q15 7 20 -8l8 -26q5 -15 -11 -18l-95 -20l64 -74q12 -10 -1 -20l-22 -16q-14 -10 -21 5l-49 83l-49 -83q-8 -15 -21 -6l-22 17q-13 10 -1 21l65 73l-94 20q-16 3 -12 19l9 25q6 16 19 8l89 -39l-9 97q-5 15 12 15h28v0z" />
    <glyph glyph-name="plus" unicode="+" horiz-adv-x="556" 
d="M488 369q15 0 20.5 -5.5t5.5 -20.5v-31q0 -15 -5.5 -21t-20.5 -6h-168v-168q0 -14 -6 -20t-21 -6h-31q-15 0 -20.5 6t-5.5 20v168h-168q-14 0 -20 6t-6 21v31q0 15 6 20.5t20 5.5h168v168q0 14 5.5 20t20.5 6h31q15 0 21 -6t6 -20v-168h168v0z" />
    <glyph glyph-name="comma" unicode="," horiz-adv-x="199" 
d="M89 -98q-5 -13 -10.5 -18.5t-19.5 -5.5h-16q-12 0 -15.5 4t-1.5 15l30 174q2 17 9 23t24 6h34q36 0 25 -29l-59 -169v0z" />
    <glyph glyph-name="hyphen" unicode="-" horiz-adv-x="417" 
d="M331 308q15 0 21 -5.5t6 -20.5v-34q0 -15 -6 -20.5t-21 -5.5h-245q-15 0 -20.5 5.5t-5.5 20.5v34q0 15 5.5 20.5t20.5 5.5h245v0z" />
    <glyph glyph-name="period" unicode="." horiz-adv-x="205" 
d="M105 103q29 0 40 -11t11 -40v-8q0 -29 -11 -39.5t-40 -10.5h-6q-29 0 -40 10.5t-11 39.5v8q0 29 11 40t40 11h6v0z" />
    <glyph glyph-name="slash" unicode="/" horiz-adv-x="422" 
d="M122 -38q-5 -13 -11.5 -17.5t-20.5 -4.5h-43q-14 0 -17.5 5.5t1.5 16.5l270 727q5 13 11.5 17.5t20.5 4.5h43q25 0 16 -22l-270 -727v0z" />
    <glyph glyph-name="zero" unicode="0" horiz-adv-x="629" 
d="M55 488q0 109 68 173t192 64q61 0 109.5 -16.5t81.5 -47.5t50.5 -75t17.5 -98v-266q0 -54 -17.5 -98t-50.5 -75t-81.5 -47.5t-109.5 -16.5q-124 0 -192 64t-68 173v266zM477 488q0 70 -42 108.5t-120 38.5t-120.5 -38.5t-42.5 -108.5v-266q0 -69 42.5 -108t120.5 -39
t120 39t42 108v266z" />
    <glyph glyph-name="one" unicode="1" horiz-adv-x="442" 
d="M333 710q15 0 20.5 -6t5.5 -20v-658q0 -14 -5.5 -20t-20.5 -6h-44q-15 0 -20.5 6t-5.5 20v567l-179 -99q-15 -9 -23.5 -6.5t-15.5 15.5l-20 35q-7 13 -4 20.5t16 15.5l222 125q11 7 18 9t19 2h37v0z" />
    <glyph glyph-name="two" unicode="2" horiz-adv-x="594" 
d="M52 561q31 76 93 120t167 44q55 0 98.5 -18t74 -48t46.5 -69.5t16 -83.5q0 -57 -17 -97t-50.5 -70.5t-84 -55.5t-117.5 -51q-22 -9 -45 -18.5t-41.5 -22t-30.5 -30t-12 -42.5v-29h363q15 0 20.5 -6t5.5 -20v-38q0 -14 -5.5 -20t-20.5 -6h-437q-15 0 -21 6t-6 21v73
q0 51 17.5 86t46 59.5t65 42t74.5 32.5q37 14 72 28.5t62.5 35t44 48.5t16.5 70q0 27 -10 51.5t-28 42.5t-43 28.5t-56 10.5q-64 0 -102.5 -26.5t-62.5 -79.5q-6 -14 -12.5 -18t-20.5 1l-43 16q-14 5 -17.5 12t1.5 21z" />
    <glyph glyph-name="three" unicode="3" horiz-adv-x="606" 
d="M537 524q0 -51 -19.5 -92t-64.5 -62q55 -22 81 -67t26 -104q0 -48 -15 -87.5t-46 -67.5t-78 -43.5t-111 -15.5q-57 0 -100.5 11.5t-75.5 33.5t-53.5 54t-35.5 73q-5 14 -1 21.5t18 12.5l41 15q14 5 21.5 1t12.5 -18q9 -28 22 -49.5t33 -35.5t48.5 -21.5t69.5 -7.5
q78 0 113.5 33.5t35.5 91.5q0 57 -30 87.5t-90 30.5h-127q-15 0 -20.5 5.5t-5.5 20.5v35q0 15 5.5 20.5t20.5 5.5h113q57 0 86.5 31t29.5 79q0 59 -33.5 89.5t-99.5 30.5q-39 0 -66 -7t-46 -21t-31.5 -35t-21.5 -49q-5 -14 -12.5 -17t-21.5 1l-41 15q-14 5 -18 12t1 21
q14 41 35 73t52 53.5t73.5 32.5t98.5 11q111 0 169 -53.5t58 -147.5z" />
    <glyph glyph-name="four" unicode="4" horiz-adv-x="620" 
d="M567 266q15 0 20.5 -6t5.5 -20v-34q0 -14 -5.5 -20t-20.5 -6h-82v-154q0 -26 -26 -26h-38q-15 0 -20.5 6t-5.5 20v154h-345q-15 0 -20.5 6t-5.5 20v28q0 14 1.5 19t7.5 13l346 430q9 11 16 15t21 4h42q15 0 21 -5.5t6 -20.5v-423h82zM137 266h258v318z" />
    <glyph glyph-name="five" unicode="5" horiz-adv-x="590" 
d="M497 710q26 0 26 -26v-38q0 -26 -26 -26h-310l-18 -183h145q60 0 104.5 -17.5t74 -47.5t43.5 -70.5t14 -85.5q0 -47 -16.5 -89t-47.5 -73.5t-77 -50t-104 -18.5q-111 0 -174 41t-91 119q-5 14 -2 21.5t17 12.5l43 15q14 5 21 1.5t12 -17.5q19 -51 59.5 -77t113.5 -26
q66 0 105.5 38.5t39.5 102.5q0 58 -37 94.5t-103 36.5h-215q-17 0 -23.5 7.5t-4.5 24.5l30 292q2 23 11.5 31t32.5 8h357v0z" />
    <glyph glyph-name="six" unicode="6" horiz-adv-x="627" 
d="M151 404q19 6 63.5 16t112.5 10q131 0 192.5 -55.5t61.5 -166.5q0 -52 -18 -93t-52 -70t-83 -44.5t-110 -15.5q-130 0 -197 69t-67 188v226q0 123 67 190t197 67q101 0 162 -40.5t90 -115.5q6 -14 2 -21t-18 -12l-41 -15q-14 -5 -21 -1.5t-12 17.5q-20 48 -58.5 73
t-103.5 25q-82 0 -124.5 -42t-42.5 -124v-65zM151 241q0 -80 42 -123t125 -43q81 0 123.5 34t42.5 99q0 66 -38 99t-125 33q-72 0 -115.5 -12t-54.5 -18v-69z" />
    <glyph glyph-name="seven" unicode="7" horiz-adv-x="528" 
d="M488 710q26 0 26 -26v-27q0 -11 -1.5 -18.5t-6.5 -18.5l-266 -597q-7 -15 -15.5 -19t-32.5 -4h-43q-14 0 -16 7t3 19l267 594h-352q-26 0 -26 26v38q0 26 26 26h437v0z" />
    <glyph glyph-name="eight" unicode="8" horiz-adv-x="621" 
d="M67 532q0 93 64.5 143t178.5 50q121 0 182.5 -47.5t61.5 -138.5q0 -39 -12.5 -67.5t-31.5 -48.5t-40 -33t-39 -21q30 -12 56 -27t46 -36.5t31.5 -50.5t11.5 -68q0 -45 -14.5 -82t-46.5 -63.5t-82.5 -41.5t-122.5 -15t-122 13.5t-82 38t-46.5 59t-14.5 77.5
q0 42 15.5 73.5t37.5 53t47 35.5t44 22q-26 12 -48 27.5t-38.5 36.5t-26 48t-9.5 63zM460 531q0 54 -39 82t-111 28q-70 0 -108 -28t-38 -82q0 -30 11.5 -50.5t32 -34.5t47 -23t56.5 -17l32 -8q12 4 31.5 12t38.5 23t33 39t14 59zM475 185q0 37 -16 59.5t-43.5 36.5
t-64 23.5t-76.5 19.5q-12 -3 -34 -11.5t-43.5 -24.5t-38 -41.5t-16.5 -64.5q0 -26 9 -47t29 -35.5t51.5 -22.5t77.5 -8t77.5 8t51 23t28 36.5t8.5 48.5z" />
    <glyph glyph-name="nine" unicode="9" horiz-adv-x="627" 
d="M476 306q-19 -6 -63.5 -16t-112.5 -10q-131 0 -192.5 55.5t-61.5 166.5q0 52 18 93t52 70t82.5 44.5t110.5 15.5q130 0 196.5 -69t66.5 -188v-226q0 -123 -66.5 -190t-196.5 -67q-102 0 -163 40.5t-90 115.5q-5 14 -1 21t18 12l41 15q14 5 20.5 1.5t12.5 -17.5
q20 -48 58.5 -73t103.5 -25q82 0 124.5 42t42.5 124v65zM476 469q0 80 -42.5 123t-124.5 43q-81 0 -124 -34t-43 -99q0 -66 38 -99t126 -33q72 0 115.5 12t54.5 18v69z" />
    <glyph glyph-name="colon" unicode=":" horiz-adv-x="227" 
d="M117 491q29 0 39.5 -11t10.5 -40v-8q0 -29 -10.5 -39.5t-39.5 -10.5h-7q-29 0 -39.5 10.5t-10.5 39.5v8q0 29 10.5 40t39.5 11h7zM117 103q29 0 39.5 -11t10.5 -40v-8q0 -29 -10.5 -39.5t-39.5 -10.5h-7q-29 0 -39.5 10.5t-10.5 39.5v8q0 29 10.5 40t39.5 11h7z" />
    <glyph glyph-name="semicolon" unicode=";" horiz-adv-x="248" 
d="M136 491q29 0 40 -11t11 -40v-8q0 -29 -11 -39.5t-40 -10.5h-6q-29 0 -40 10.5t-11 39.5v8q0 29 11 40t40 11h6zM113 -98q-5 -13 -10.5 -18.5t-19.5 -5.5h-17q-11 0 -14.5 4t-1.5 15l30 174q2 17 8.5 23t23.5 6h35q35 0 24 -29z" />
    <glyph glyph-name="less" unicode="&#x3c;" horiz-adv-x="490" 
d="M404 562q16 8 22 2.5t6 -22.5v-34q0 -21 -5 -28t-19 -15l-263 -136v-4l262 -134q15 -8 20 -15t5 -29v-37q0 -17 -6 -22.5t-22 2.5l-350 191q-12 6 -17 12t-5 20v26q0 14 5 20t17 13l350 190v0z" />
    <glyph glyph-name="equal" unicode="=" horiz-adv-x="593" 
d="M506 469q15 0 21 -6t6 -20v-35q0 -15 -6 -20.5t-21 -5.5h-419q-15 0 -20.5 5.5t-5.5 20.5v35q0 14 5.5 20t20.5 6h419zM506 271q15 0 21 -5.5t6 -20.5v-34q0 -15 -6 -20.5t-21 -5.5h-419q-15 0 -20.5 5.5t-5.5 20.5v34q0 15 5.5 20.5t20.5 5.5h419z" />
    <glyph glyph-name="greater" unicode="&#x3e;" horiz-adv-x="490" 
d="M58 543q0 17 6 22.5t22 -3.5l350 -190q13 -7 17.5 -13t4.5 -20v-25q0 -14 -4.5 -20.5t-17.5 -12.5l-350 -190q-16 -8 -22 -3t-6 23v33q0 22 5 29t19 14l263 136v4l-262 135q-15 8 -20 14.5t-5 28.5v38v0z" />
    <glyph glyph-name="question" unicode="?" horiz-adv-x="563" 
d="M32 574q14 36 35.5 66.5t53 52.5t73 34t94.5 12q58 0 103 -16t76 -44t47 -65.5t16 -80.5q0 -54 -15 -91t-38.5 -62t-51 -42.5t-51.5 -32.5q-31 -20 -54 -44.5t-23 -66.5q0 -15 -5.5 -20t-19.5 -5h-31q-14 0 -19.5 5t-5.5 20q0 37 9 63.5t23.5 46.5t33 35t38.5 28
q21 14 41.5 28t37 32t26.5 42.5t10 59.5q0 54 -37.5 89.5t-111.5 35.5q-35 0 -62 -8t-47 -22t-34.5 -34.5t-24.5 -45.5q-6 -14 -12.5 -17.5t-20.5 1.5l-37 13q-14 5 -18 12t2 21zM260 103q29 0 40 -11t11 -40v-8q0 -29 -11 -39.5t-40 -10.5h-6q-29 0 -40 10.5t-11 39.5v8
q0 29 11 40t40 11h6z" />
    <glyph glyph-name="at" unicode="@" horiz-adv-x="901" 
d="M46 329q0 90 26.5 163.5t77.5 125t126 79.5t172 28q99 0 174.5 -28.5t126.5 -80.5t77 -125t26 -162v-73q0 -53 -14 -92.5t-37.5 -66.5t-55 -40.5t-65.5 -13.5t-49 10t-29 30q-27 -10 -72.5 -21t-108.5 -11q-90 0 -132 44t-42 122v149q0 78 42 122.5t132 44.5
q63 0 109.5 -10t71.5 -20q20 -8 27 -17.5t7 -30.5v-305q0 -23 14 -32t31 -9q19 0 37 7.5t32 25t22.5 45t8.5 67.5v76q0 76 -21 137t-63 104t-104.5 66.5t-144.5 23.5q-80 0 -141.5 -23t-103.5 -65.5t-64 -104t-22 -138.5v-76q0 -157 85 -240t246 -83q34 0 68.5 3.5t64 8
t51.5 8.5t32 6q14 4 14 -8v-35q0 -10 -3 -14t-11 -6t-26.5 -6t-46 -8.5t-64 -8t-79.5 -3.5q-97 0 -172 26.5t-126 76t-77.5 121.5t-26.5 164v73zM547 447q-18 7 -49 11.5t-67 4.5q-57 0 -82.5 -25t-25.5 -74v-145q0 -49 25.5 -74t82.5 -25q49 0 82.5 9.5t46.5 14.5v285
q0 13 -13 18z" />
    <glyph glyph-name="A" unicode="A" horiz-adv-x="649" 
d="M637 26q5 -13 1 -19.5t-19 -6.5h-39q-25 0 -34 4.5t-14 18.5l-62 163h-296l-62 -163q-5 -14 -14.5 -18.5t-33.5 -4.5h-35q-15 0 -19 6.5t1 19.5l260 664q5 14 12 18t21 4h40q14 0 21 -4t12 -17zM343 528q-6 18 -9.5 34.5t-5.5 29.5t-2.5 21t-0.5 9h-6q-1 -2 -3 -30
t-14 -63l-101 -264h242z" />
    <glyph glyph-name="B" unicode="B" horiz-adv-x="647" 
d="M380 710q94 0 146.5 -47t52.5 -137q0 -114 -86 -156v-3q54 -16 83 -60t29 -114q0 -47 -16 -83t-44.5 -60.5t-68 -37t-87.5 -12.5h-289q-26 0 -26 26v658q0 26 26 26h280zM480 512q0 54 -28.5 81t-82.5 27h-198v-215h198q54 0 82.5 26.5t28.5 80.5zM502 203q0 56 -29.5 85
t-86.5 29h-215v-227h215q57 0 86.5 28t29.5 85z" />
    <glyph glyph-name="C" unicode="C" horiz-adv-x="638" 
d="M53 469q0 119 71.5 187.5t208.5 68.5q113 0 177.5 -43.5t91.5 -126.5q5 -14 1 -21.5t-18 -12.5l-41 -14q-14 -5 -21.5 -1.5t-12.5 17.5q-19 57 -60.5 84.5t-116.5 27.5q-90 0 -136.5 -43t-46.5 -122v-230q0 -78 47 -121.5t136 -43.5q77 0 118 28.5t60 85.5
q5 15 12.5 18.5t21.5 -1.5l41 -15q14 -5 18 -12.5t-1 -21.5q-27 -83 -91.5 -127.5t-178.5 -44.5q-136 0 -208 68.5t-72 187.5v228v0z" />
    <glyph glyph-name="D" unicode="D" horiz-adv-x="659" 
d="M318 710q70 0 124 -18.5t91 -52.5t56 -83t19 -110v-182q0 -61 -19 -110t-56 -83t-91 -52.5t-124 -18.5h-218q-26 0 -26 26v658q0 26 26 26h218zM511 447q0 83 -49.5 128t-143.5 45h-147v-530h147q94 0 143.5 45t49.5 128v184z" />
    <glyph glyph-name="E" unicode="E" 
d="M502 710q15 0 20.5 -6t5.5 -20v-38q0 -14 -5.5 -20t-20.5 -6h-331v-215h285q15 0 20.5 -6t5.5 -21v-37q0 -15 -5.5 -20.5t-20.5 -5.5h-285v-225h343q15 0 20.5 -6t5.5 -20v-38q0 -14 -5.5 -20t-20.5 -6h-414q-26 0 -26 26v658q0 26 26 26h402v0z" />
    <glyph glyph-name="F" unicode="F" horiz-adv-x="559" 
d="M502 710q15 0 20.5 -6t5.5 -20v-38q0 -14 -5.5 -20t-20.5 -6h-331v-225h282q15 0 20.5 -6t5.5 -20v-38q0 -15 -5.5 -20.5t-20.5 -5.5h-282v-279q0 -14 -6 -20t-21 -6h-44q-26 0 -26 26v658q0 26 26 26h402v0z" />
    <glyph glyph-name="G" unicode="G" horiz-adv-x="658" 
d="M586 378q15 0 21 -6t6 -21v-128q0 -53 -18.5 -96.5t-54 -75t-87.5 -49t-120 -17.5q-137 0 -208.5 68.5t-71.5 187.5v228q0 119 71.5 187.5t208.5 68.5q113 0 177.5 -43.5t91.5 -126.5q5 -14 1 -21.5t-18 -12.5l-41 -14q-14 -5 -21.5 -1.5t-12.5 17.5q-19 57 -60.5 84.5
t-116.5 27.5q-91 0 -137 -43t-46 -122v-229q0 -79 47 -122.5t136 -43.5t136.5 41t47.5 107v65h-173q-15 0 -20.5 5.5t-5.5 20.5v38q0 14 5.5 20t20.5 6h242v0z" />
    <glyph glyph-name="H" unicode="H" horiz-adv-x="683" 
d="M583 710q15 0 20.5 -6t5.5 -20v-658q0 -14 -5.5 -20t-20.5 -6h-44q-15 0 -20.5 6t-5.5 20v289h-342v-289q0 -14 -6 -20t-21 -6h-44q-26 0 -26 26v658q0 26 26 26h44q15 0 21 -6t6 -20v-279h342v279q0 14 5.5 20t20.5 6h44v0z" />
    <glyph glyph-name="I" unicode="I" horiz-adv-x="245" 
d="M74 684q0 26 26 26h44q15 0 21 -6t6 -20v-658q0 -14 -6 -20t-21 -6h-44q-26 0 -26 26v658v0z" />
    <glyph glyph-name="J" unicode="J" horiz-adv-x="574" 
d="M479 710q14 0 19.5 -6t5.5 -20v-456q0 -113 -62.5 -178t-184.5 -65q-101 0 -158.5 46.5t-80.5 131.5q-5 14 -1.5 21.5t17.5 12.5l42 15q14 5 21.5 1t12.5 -18q15 -58 48.5 -89t98.5 -31q75 0 113 39.5t38 112.5v457q0 14 5.5 20t20.5 6h45v0z" />
    <glyph glyph-name="K" unicode="K" horiz-adv-x="617" 
d="M598 27q6 -11 3.5 -19t-17.5 -8h-44q-24 0 -34.5 4.5t-17.5 18.5l-106 214q-11 22 -23 37t-27 24.5t-35 13.5t-48 4h-78v-290q0 -14 -6 -20t-21 -6h-44q-26 0 -26 26v658q0 26 26 26h44q15 0 21 -6t6 -20v-280h70h18l213 284q11 14 20.5 18t32.5 4h49q14 0 17.5 -8
t-4.5 -17l-231 -300q39 -14 66 -41.5t49 -71.5l127 -245v0z" />
    <glyph glyph-name="L" unicode="L" horiz-adv-x="525" 
d="M144 710q15 0 21 -6t6 -20v-594h314q15 0 21 -6t6 -20v-38q0 -14 -6 -20t-21 -6h-385q-26 0 -26 26v658q0 26 26 26h44v0z" />
    <glyph glyph-name="M" unicode="M" horiz-adv-x="805" 
d="M705 710q26 0 26 -26v-658q0 -26 -26 -26h-40q-15 0 -20.5 6t-5.5 20v361q0 83 18 188h-5q-19 -51 -38 -89.5t-42 -78.5l-127 -226q-6 -11 -12.5 -15t-18.5 -4h-25q-12 0 -18 4t-13 15l-129 228q-12 20 -21.5 38.5t-18.5 38t-17.5 41.5t-17.5 48h-6q9 -54 12.5 -98.5
t3.5 -89.5v-361q0 -14 -5.5 -20t-20.5 -6h-38q-26 0 -26 26v658q0 26 26 26h35q17 0 23.5 -4t13.5 -16l230 -409l229 408q7 13 13.5 17t22.5 4h38v0z" />
    <glyph glyph-name="N" unicode="N" horiz-adv-x="693" 
d="M593 710q26 0 26 -26v-658q0 -26 -26 -26h-44q-18 0 -27 13l-285 415q-15 23 -28.5 48t-24 47t-17.5 38t-11 21h-5q0 -7 2.5 -25.5t6 -43.5t6 -55.5t2.5 -61.5v-370q0 -14 -6 -20t-21 -6h-41q-26 0 -26 26v658q0 26 26 26h44q11 0 16.5 -3.5t9.5 -9.5l281 -408
q17 -26 31 -51.5t24.5 -47.5t18 -38.5t12.5 -22.5h5q0 8 -2.5 27t-5.5 44.5t-5.5 57t-2.5 64.5v362q0 14 5.5 20t20.5 6h41v0z" />
    <glyph glyph-name="O" unicode="O" horiz-adv-x="666" 
d="M53 469q0 119 71.5 187.5t208.5 68.5t208.5 -68.5t71.5 -187.5v-228q0 -119 -71.5 -187.5t-208.5 -68.5t-208.5 68.5t-71.5 187.5v228zM516 469q0 80 -47 123t-136 43t-136 -43t-47 -123v-228q0 -80 47 -123t136 -43t136 43t47 123v228z" />
    <glyph glyph-name="P" unicode="P" horiz-adv-x="627" 
d="M367 710q106 0 168 -60t62 -167q0 -106 -61.5 -165.5t-168.5 -59.5h-196v-232q0 -14 -6 -20t-21 -6h-44q-26 0 -26 26v658q0 26 26 26h267zM358 348q65 0 101.5 35t36.5 100t-36.5 101t-101.5 36h-187v-272h187z" />
    <glyph glyph-name="Q" unicode="Q" horiz-adv-x="679" 
d="M623 -3q9 -11 8.5 -19.5t-11.5 -18.5l-29 -24q-11 -9 -19.5 -8.5t-17.5 11.5l-69 81q-60 -34 -152 -34q-137 0 -208.5 68.5t-71.5 187.5v228q0 119 71.5 187.5t208.5 68.5t208.5 -68.5t71.5 -187.5v-228q0 -104 -55 -168zM150 241q0 -80 47 -123t136 -43t136 43t47 123
v228q0 80 -47 123t-136 43t-136 -43t-47 -123v-228z" />
    <glyph glyph-name="R" unicode="R" horiz-adv-x="647" 
d="M381 710q101 0 158.5 -55.5t57.5 -157.5q0 -81 -39 -132t-108 -67q17 -9 28 -23t22 -33l111 -215q6 -11 3.5 -19t-17.5 -8h-44q-25 0 -35 4.5t-17 18.5l-91 183q-11 22 -22.5 37t-26.5 24.5t-35 13.5t-48 4h-107v-259q0 -14 -6 -20t-21 -6h-44q-26 0 -26 26v658
q0 26 26 26h281zM496 497q0 60 -32 91.5t-92 31.5h-201v-245h201q60 0 92 31.5t32 90.5z" />
    <glyph glyph-name="S" unicode="S" horiz-adv-x="629" 
d="M48 513q0 47 17 86t51 67t83.5 43.5t114.5 15.5q52 0 92.5 -9.5t72 -28.5t55.5 -48t42 -67q7 -14 3.5 -21.5t-17.5 -13.5l-42 -19q-14 -6 -20.5 -3.5t-13.5 16.5q-13 25 -28.5 43.5t-36 31.5t-47 19.5t-60.5 6.5q-82 0 -124.5 -28.5t-42.5 -84.5q0 -33 16 -54t42.5 -33
t61 -18t72.5 -10q45 -5 89.5 -14.5t80.5 -31t58.5 -58.5t22.5 -98q0 -99 -71 -158t-206 -59q-56 0 -99.5 11t-76.5 32.5t-57 53.5t-40 74q-5 14 -1 21.5t18 12.5l41 15q14 5 21 1.5t13 -17.5q24 -56 68.5 -84.5t112.5 -28.5q89 0 134.5 30t45.5 94q0 32 -14.5 52t-39 32
t-56.5 18t-67 10q-46 5 -93.5 13.5t-86.5 29t-63.5 58t-24.5 100.5z" />
    <glyph glyph-name="T" unicode="T" horiz-adv-x="554" 
d="M514 710q26 0 26 -26v-38q0 -26 -26 -26h-189v-594q0 -14 -5.5 -20t-20.5 -6h-44q-15 0 -20.5 6t-5.5 20v594h-189q-15 0 -20.5 6t-5.5 20v38q0 14 5.5 20t20.5 6h474v0z" />
    <glyph glyph-name="U" unicode="U" horiz-adv-x="685" 
d="M165 242q0 -78 43.5 -122.5t133.5 -44.5t133.5 44.5t43.5 122.5v442q0 14 6 20t21 6h44q26 0 26 -26v-441q0 -59 -17 -106.5t-51.5 -81.5t-86 -52t-119.5 -18t-119 18t-85.5 52t-51.5 81.5t-17 106.5v441q0 14 5.5 20t20.5 6h44q15 0 20.5 -6t5.5 -20v-442v0z" />
    <glyph glyph-name="V" unicode="V" horiz-adv-x="630" 
d="M601 710q28 0 17 -26l-250 -662q-5 -14 -11.5 -18t-20.5 -4h-41q-14 0 -21 4t-12 17l-250 663q-9 26 18 26h39q24 0 33 -4.5t14 -18.5l174 -480q5 -15 9 -30t7 -28t5.5 -22.5t3.5 -11.5h4q1 2 3 11t5 22t7.5 28t9.5 30l172 481q5 14 14 18.5t34 4.5h37v0z" />
    <glyph glyph-name="W" unicode="W" horiz-adv-x="890" 
d="M850 710q14 0 17.5 -6t0.5 -20l-173 -662q-3 -14 -11 -18t-22 -4h-42q-14 0 -22 4t-11 17l-120 445q-6 23 -11 50.5t-7 53.5h-6q-2 -26 -7 -53t-12 -51l-121 -444q-4 -14 -11.5 -18t-21.5 -4h-42q-14 0 -22 3.5t-11 17.5l-172 663q-4 14 -0.5 20t17.5 6h53
q17 0 24.5 -4.5t10.5 -18.5l104 -433q3 -12 5.5 -29.5l5 -35t4 -33t2.5 -22.5h5q1 8 3 23t5 32l6 34t7 30l118 426q5 14 13 18.5t22 4.5h42q15 0 23 -4.5t12 -18.5l117 -426q4 -14 7.5 -31.5t6 -34.5t4.5 -31t3 -22h5q1 7 2.5 21t4 31.5t5.5 35t6 30.5l103 435
q3 14 10.5 18.5t24.5 4.5h46v0z" />
    <glyph glyph-name="X" unicode="X" horiz-adv-x="627" 
d="M609 27q8 -10 5 -18.5t-18 -8.5h-54q-23 0 -31.5 3.5t-19.5 19.5l-182 264l-177 -264q-5 -8 -9.5 -12.5t-9.5 -7t-12.5 -3t-19.5 -0.5h-50q-15 0 -18 8t5 19l234 334l-226 324q-8 9 -4.5 17t17.5 8h52q12 0 19.5 -1t12.5 -3t9.5 -6.5t9.5 -11.5l172 -250l172 250
q11 14 19 18t29 4h54q14 0 17 -8t-4 -17l-227 -323l235 -335v0z" />
    <glyph glyph-name="Y" unicode="Y" horiz-adv-x="634" 
d="M605 710q15 0 17.5 -7.5t-3.5 -18.5l-254 -400v-258q0 -14 -5.5 -20t-20.5 -6h-44q-15 0 -20.5 6t-5.5 20v260l-254 398q-6 11 -3 18.5t17 7.5h54q23 0 32.5 -3t18.5 -20l184 -303l186 303q9 17 18.5 20t32.5 3h50v0z" />
    <glyph glyph-name="Z" unicode="Z" 
d="M510 710q26 0 26 -26v-37q0 -18 -9 -28l-373 -529h364q15 0 20.5 -5.5t5.5 -20.5v-38q0 -14 -5.5 -20t-20.5 -6h-458q-15 0 -21 6t-6 20v37q0 16 10 29l372 528h-351q-26 0 -26 26v38q0 26 26 26h446v0z" />
    <glyph glyph-name="bracketleft" unicode="[" horiz-adv-x="286" 
d="M244 856q15 0 19 -4t4 -19v-34q0 -15 -4 -19t-19 -4h-94v-841h94q15 0 19 -4.5t4 -18.5v-35q0 -15 -4 -19t-19 -4h-155q-15 0 -19.5 4.5t-4.5 19.5v954q0 15 4.5 19.5t19.5 4.5h155v0z" />
    <glyph glyph-name="backslash" unicode="\" horiz-adv-x="422" 
d="M30 688q-4 11 -1 16.5t17 5.5h44q14 0 20.5 -4.5t11.5 -17.5l270 -726q9 -22 -16 -22h-44q-14 0 -20.5 4.5t-11.5 17.5l-270 726v0z" />
    <glyph glyph-name="bracketright" unicode="]" horiz-adv-x="286" 
d="M197 856q15 0 19.5 -4.5t4.5 -19.5v-954q0 -15 -4.5 -19.5t-19.5 -4.5h-155q-15 0 -19 4t-4 19v35q0 14 4 18.5t19 4.5h94v841h-94q-15 0 -19 4t-4 19v34q0 15 4 19t19 4h155v0z" />
    <glyph glyph-name="asciicircum" unicode="^" horiz-adv-x="590" 
d="M307 810q13 0 18.5 -5t13.5 -16l199 -241q23 -28 -13 -28h-40q-11 0 -17.5 0.5t-11 3t-8.5 6.5t-10 11l-143 179h-4l-142 -179q-12 -14 -19.5 -17.5t-28.5 -3.5h-36q-36 0 -13 28l196 241q9 11 15.5 16t18.5 5h25v0z" />
    <glyph glyph-name="underscore" unicode="_" horiz-adv-x="501" 
d="M450 0q15 0 21 -6t6 -20v-34q0 -15 -6 -20.5t-21 -5.5h-399q-15 0 -20.5 5.5t-5.5 20.5v34q0 14 5.5 20t20.5 6h399v0z" />
    <glyph glyph-name="grave" unicode="`" horiz-adv-x="257" 
d="M42 726q10 11 21.5 9.5t23.5 -8.5l155 -94q9 -5 9 -10.5t-8 -15.5l-11 -15q-5 -7 -12.5 -6.5t-18.5 5.5l-175 83q-12 5 -12 11t9 17l19 24v0z" />
    <glyph glyph-name="a" unicode="a" horiz-adv-x="516" 
d="M52 426q26 50 76 77.5t127 27.5q61 0 101 -15.5t63.5 -43t33 -64.5t9.5 -79v-261q0 -26 -7.5 -37t-28.5 -20q-28 -12 -70.5 -19t-101.5 -7q-66 0 -108.5 10.5t-67 30.5t-34 50t-9.5 68q0 44 12.5 74t39.5 48.5t69 26.5t102 8q37 0 69 -2.5t45 -4.5v38q0 27 -5.5 48.5
t-19 37.5t-36.5 24.5t-58 8.5q-45 0 -75.5 -15.5t-48.5 -45.5q-8 -12 -13.5 -14.5t-19.5 2.5l-31 14q-13 5 -16.5 12.5t3.5 21.5zM372 220q-15 2 -51 5t-73 3q-35 0 -59 -5t-38 -15.5t-20 -26.5t-6 -37q0 -20 5 -35.5t18 -26t36.5 -16.5t61.5 -6q41 0 67.5 3t43.5 9
q9 4 12 7.5t3 14.5v126z" />
    <glyph glyph-name="b" unicode="b" horiz-adv-x="539" 
d="M126 740q14 0 19 -5t5 -19v-210q21 7 57.5 16t83.5 9q105 0 153.5 -52t48.5 -146v-140q0 -101 -54 -154.5t-166 -53.5q-59 0 -103.5 10t-71.5 21q-24 11 -30.5 21t-6.5 34v645q0 14 5 19t18 5h42zM403 330q0 57 -31 88t-94 31q-42 0 -76 -9.5t-52 -16.5v-321
q0 -8 2 -11.5t12 -7.5q19 -7 45 -11.5t58 -4.5q70 0 103 32t33 97v134z" />
    <glyph glyph-name="c" unicode="c" horiz-adv-x="516" 
d="M45 330q0 93 55 147t169 54q91 0 141.5 -37t69.5 -97q5 -14 1 -21.5t-17 -12.5l-35 -11q-14 -6 -21.5 -2t-12.5 18q-14 42 -44 63t-86 21q-66 0 -98 -31t-32 -87v-151q0 -56 32.5 -87.5t97.5 -31.5q54 0 85.5 22.5t45.5 64.5q6 14 13 17.5t21 -1.5l35 -10q14 -5 18 -12.5
t-1 -21.5q-24 -67 -76.5 -102.5t-142.5 -35.5q-112 0 -165 54t-53 148v143v0z" />
    <glyph glyph-name="d" unicode="d" horiz-adv-x="539" 
d="M46 327q0 98 50 151t153 53q47 0 83.5 -8.5t56.5 -13.5v207q0 14 5 19t19 5h42q13 0 18 -5t5 -19v-645q0 -25 -7.5 -35t-31.5 -20q-29 -11 -72 -21t-107 -10q-111 0 -162.5 52t-51.5 149v141zM389 427q-17 5 -49 13.5t-74 8.5q-68 0 -99 -31.5t-31 -93.5v-135
q0 -122 132 -122q33 0 60 4.5t47 11.5q10 4 12 7.5t2 11.5v325z" />
    <glyph glyph-name="e" unicode="e" horiz-adv-x="534" 
d="M44 317q0 102 57 158t169 56q58 0 100.5 -16t70.5 -43.5t41.5 -65.5t13.5 -82v-58q0 -16 -8 -25.5t-29 -9.5h-326v-48q0 -57 34 -88.5t100 -31.5q54 0 87 18.5t52 50.5q9 13 17 15t22 -6l27 -14q26 -13 9 -39q-26 -46 -77.5 -74.5t-137.5 -28.5q-59 0 -101 15.5t-69 43
t-39.5 65.5t-12.5 84v124zM407 329q0 59 -34 92.5t-103 33.5q-68 0 -102.5 -33.5t-34.5 -92.5v-29h274v29z" />
    <glyph glyph-name="f" unicode="f" horiz-adv-x="361" 
d="M328 740q14 0 19 -5t5 -19v-35q0 -14 -5 -19t-19 -5q-36 0 -61 -6t-40 -20.5t-21.5 -38t-6.5 -58.5v-18h131q13 0 18 -5t5 -19v-35q0 -14 -5 -19t-18 -5h-131v-409q0 -14 -5.5 -19t-19.5 -5h-40q-14 0 -19.5 5t-5.5 19v409h-76q-13 0 -18 5t-5 19v35q0 14 5 19t18 5h76
v18q0 106 50 155t160 51h9v0z" />
    <glyph glyph-name="g" unicode="g" horiz-adv-x="538" 
d="M46 324q0 101 53.5 154t166.5 53q58 0 103 -9.5t71 -21.5q12 -5 19.5 -9.5t11.5 -10.5t5.5 -14.5t1.5 -20.5v-470q0 -49 -12 -88.5t-38 -68t-66.5 -44t-98.5 -15.5q-81 0 -128.5 27.5t-73.5 74.5q-17 25 9 38l29 16q14 8 22.5 5.5t16.5 -14.5q18 -31 45.5 -49t77.5 -18
q66 0 96.5 34.5t30.5 97.5v57q-21 -7 -57.5 -16t-82.5 -9q-105 0 -153.5 52.5t-48.5 145.5v123zM374 434q-19 6 -44.5 10.5t-57.5 4.5q-71 0 -104 -31.5t-33 -96.5v-118q0 -57 31 -87.5t94 -30.5q45 0 77.5 8.5t50.5 13.5v307q0 9 -2 12t-12 8z" />
    <glyph glyph-name="h" unicode="h" horiz-adv-x="553" 
d="M129 740q13 0 18 -5t5 -19v-207q16 8 53.5 15t86.5 7q106 0 154.5 -52t48.5 -146v-309q0 -14 -5 -19t-19 -5h-41q-14 0 -19 5t-5 19v306q0 58 -31.5 88.5t-94.5 30.5q-42 0 -76.5 -7.5t-51.5 -15.5v-402q0 -14 -5 -19t-18 -5h-42q-14 0 -19 5t-5 19v692q0 14 5 19t19 5
h42v0z" />
    <glyph glyph-name="i" unicode="i" horiz-adv-x="214" 
d="M110 705q28 0 38 -10.5t10 -37.5v-8q0 -27 -10 -37.5t-38 -10.5h-6q-27 0 -37.5 10t-10.5 38v8q0 27 10.5 37.5t37.5 10.5h6zM128 516q14 0 19 -5t5 -19v-468q0 -14 -5 -19t-19 -5h-42q-14 0 -19 5t-5 19v468q0 14 5 19t19 5h42z" />
    <glyph glyph-name="j" unicode="j" horiz-adv-x="215" 
d="M111 705q27 0 37.5 -10.5t10.5 -37.5v-8q0 -27 -10.5 -37.5t-37.5 -10.5h-7q-27 0 -37 10t-10 38v8q0 27 10 37.5t37 10.5h7zM128 516q14 0 19 -5t5 -19v-500q0 -106 -50.5 -164t-166.5 -58q-14 0 -19 5t-5 19v35q0 14 5 19t19 5q37 0 61.5 9.5t39.5 28t21 44.5t6 59v498
q0 14 5 19t19 5h41z" />
    <glyph glyph-name="k" unicode="k" horiz-adv-x="514" 
d="M490 28q8 -15 5 -21.5t-20 -6.5h-39q-20 0 -27 4t-14 18l-69 145q-14 29 -34.5 42t-55.5 13h-84v-197q0 -14 -5.5 -19.5t-19.5 -5.5h-39q-14 0 -19.5 5.5t-5.5 19.5v691q0 14 5.5 19t19.5 5h39q14 0 19.5 -5t5.5 -19v-411h73h8l149 193q10 13 18.5 15.5t28.5 2.5h38
q37 0 15 -28l-160 -200q26 -10 45 -30t35 -52l88 -178v0z" />
    <glyph glyph-name="l" unicode="l" horiz-adv-x="221" 
d="M155 24q0 -14 -5 -19t-19 -5h-41q-14 0 -19 5t-5 19v692q0 14 5 19t19 5h41q14 0 19 -5t5 -19v-692v0z" />
    <glyph glyph-name="m" unicode="m" horiz-adv-x="822" 
d="M396 493q10 4 26.5 10.5t38.5 12.5t50.5 10.5t62.5 4.5q99 0 144 -50t45 -144v-313q0 -14 -5 -19t-18 -5h-42q-14 0 -19 5t-5 19v310q0 115 -112 115q-42 0 -72 -10t-46 -17q8 -17 11.5 -38.5t3.5 -46.5v-313q0 -14 -5 -19t-18 -5h-42q-14 0 -19 5t-5 19v310
q0 115 -114 115q-29 0 -51 -4t-43 -12q-8 -5 -10 -9.5t-2 -11.5v-388q0 -14 -5 -19t-19 -5h-42q-13 0 -18 5t-5 19v417q0 23 7.5 35t30.5 22q28 12 68.5 22.5t100.5 10.5q82 0 128 -38z" />
    <glyph glyph-name="n" unicode="n" horiz-adv-x="551" 
d="M99 497q29 12 75 23t116 11q105 0 154 -52.5t49 -145.5v-309q0 -14 -5 -19t-19 -5h-42q-14 0 -19 5t-5 19v306q0 60 -30 89.5t-95 29.5q-37 0 -66 -5.5t-50 -12.5q-8 -3 -10 -7.5t-2 -10.5v-389q0 -14 -5 -19t-19 -5h-42q-13 0 -18 5t-5 19v417q0 23 7.5 34.5t30.5 21.5z
" />
    <glyph glyph-name="o" unicode="o" horiz-adv-x="541" 
d="M46 339q0 90 59 141t165 51q109 0 167 -51t58 -141v-163q0 -89 -58 -140t-167 -51q-106 0 -165 51t-59 140v163zM406 340q0 52 -36 81t-100 29q-63 0 -99 -29t-36 -81v-164q0 -52 36 -81t99 -29q64 0 100 29t36 81v164z" />
    <glyph glyph-name="p" unicode="p" horiz-adv-x="539" 
d="M100 502q29 11 73.5 20t110.5 9q108 0 158.5 -52t50.5 -149v-141q0 -98 -52 -151t-161 -53q-43 0 -76.5 10t-53.5 17v-208q0 -14 -5 -19t-19 -5h-42q-13 0 -18 5t-5 19v641q0 25 7.5 36t31.5 21zM403 327q0 122 -132 122q-33 0 -59.5 -4.5t-46.5 -10.5q-10 -5 -12.5 -8.5
t-2.5 -12.5v-320q17 -6 50 -16t73 -10q68 0 99 31t31 94v135z" />
    <glyph glyph-name="q" unicode="q" horiz-adv-x="539" 
d="M266 531q59 0 103.5 -9.5t71.5 -21.5q12 -5 19.5 -9.5t11 -10.5t5 -14.5t1.5 -20.5v-641q0 -14 -5 -19t-18 -5h-42q-14 0 -19 5t-5 19v209q-21 -8 -57.5 -18t-83.5 -10q-105 0 -153.5 52t-48.5 146v141q0 101 54 154t166 53zM136 186q0 -58 31 -88.5t94 -30.5
q42 0 75.5 10t52.5 16v320q0 9 -2.5 12.5t-13.5 8.5q-20 6 -44 10.5t-56 4.5q-71 0 -104 -31.5t-33 -96.5v-135z" />
    <glyph glyph-name="r" unicode="r" horiz-adv-x="346" 
d="M314 531q14 0 19 -5t5 -19v-34q0 -14 -5 -19t-19 -5h-35q-37 0 -65 -5t-50 -12q-10 -4 -12 -8.5t-2 -11.5v-388q0 -14 -5 -19t-19 -5h-42q-13 0 -18 5t-5 19v420q0 23 7.5 34.5t30.5 21.5q28 11 72.5 20t110.5 11h32z" />
    <glyph glyph-name="s" unicode="s" horiz-adv-x="500" 
d="M42 376q0 70 50.5 112.5t150.5 42.5q87 0 136.5 -29.5t72.5 -78.5q7 -14 3.5 -22t-15.5 -13l-34 -14q-14 -6 -19.5 -3.5t-13.5 14.5q-14 29 -42 47t-86 18q-114 0 -114 -72q0 -24 9.5 -38.5t27.5 -22.5t43 -11.5t56 -6.5q43 -4 79 -12t62.5 -25t41.5 -45t15 -72
q0 -71 -52 -115.5t-157 -44.5q-173 0 -219 123q-10 24 15 32l34 12q12 4 19 1.5t13 -16.5q15 -39 48.5 -55.5t86.5 -16.5q125 0 125 76q0 22 -9 36.5t-26 22.5t-42 12.5t-56 7.5q-38 4 -74 10.5t-65 23t-46.5 45.5t-17.5 77z" />
    <glyph glyph-name="t" unicode="t" horiz-adv-x="372" 
d="M179 636q14 0 19 -5t5 -19v-96h131q13 0 18 -5t5 -19v-35q0 -14 -5 -19t-18 -5h-131v-233q0 -41 6.5 -66.5t21.5 -39.5t40 -19t61 -5q14 0 19.5 -5t5.5 -19v-36q0 -14 -5.5 -18.5t-19.5 -5.5q-60 -2 -101.5 7.5t-67.5 34t-37.5 66t-11.5 104.5v235h-83q-14 0 -19 5t-5 19
v35q0 14 5 19t19 5h83v96q0 14 4.5 19t18.5 5h42v0z" />
    <glyph glyph-name="u" unicode="u" horiz-adv-x="551" 
d="M466 516q14 0 19 -5t5 -19v-417q0 -23 -7.5 -34.5t-30.5 -21.5q-30 -11 -75.5 -22.5t-115.5 -11.5q-105 0 -154 52.5t-49 145.5v309q0 14 5 19t19 5h42q13 0 18 -5t5 -19v-306q0 -60 30.5 -89.5t95.5 -29.5q37 0 64 5t49 12q10 5 12.5 10t2.5 13v385q0 14 5 19t19 5h41v0
z" />
    <glyph glyph-name="v" unicode="v" horiz-adv-x="509" 
d="M474 516q17 0 21.5 -5t-2.5 -22l-193 -469q-5 -13 -12 -17.5t-21 -4.5h-25q-14 0 -21 4.5t-12 17.5l-193 468q-7 17 -2.5 22.5t22.5 5.5h30q21 0 29 -5t13 -19l117 -289q6 -15 10.5 -31t8 -29.5t5.5 -23t4 -12.5h4q2 6 9 35t18 60l116 290q5 14 13 19t29 5h32v0z" />
    <glyph glyph-name="w" unicode="w" horiz-adv-x="733" 
d="M690 516q17 0 21 -5.5t-1 -22.5l-142 -469q-3 -12 -10.5 -16.5t-21.5 -4.5h-27q-14 0 -21.5 4.5t-12.5 16.5l-89 295q-8 31 -12.5 59t-6.5 34h-4q-2 -6 -6.5 -34t-12.5 -59l-89 -295q-4 -13 -11.5 -17t-21.5 -4h-26q-14 0 -21.5 4t-11.5 17l-140 469q-5 17 -1.5 22.5
t21.5 5.5h30q21 0 30 -4.5t12 -19.5l75 -271q4 -15 7 -33t5.5 -34t4.5 -28.5t3 -16.5h4q1 4 3.5 16.5t5 28.5t6 34t8.5 34l82 262q5 15 11.5 20t28.5 5h18q21 0 27.5 -5t11.5 -19l83 -261q5 -17 8.5 -35.5t6.5 -35t5 -28.5t3 -16h5q1 4 2.5 15.5t3.5 27t5 34t8 37.5l75 269
q4 15 12.5 19.5t30.5 4.5h26v0z" />
    <glyph glyph-name="x" unicode="x" horiz-adv-x="497" 
d="M449 516q35 0 17 -28l-162 -223l172 -237q10 -14 6.5 -21t-23.5 -7h-38q-20 0 -27 3.5t-16 16.5l-131 181l-128 -181q-8 -14 -16 -17t-27 -3h-37q-21 0 -24 7t7 21l172 237l-165 223q-8 13 -5 20.5t24 7.5h36q20 0 27.5 -3.5t16.5 -16.5l121 -166l121 166q8 13 15 16.5
t26 3.5h38v0z" />
    <glyph glyph-name="y" unicode="y" horiz-adv-x="553" 
d="M466 516q14 0 19 -5t5 -19v-517q0 -49 -12 -88.5t-38 -68t-67 -44t-99 -15.5q-80 0 -128.5 27.5t-74.5 74.5q-16 25 10 38l29 16q14 8 22 5.5t17 -14.5q18 -31 46 -49t78 -18q66 0 97 34.5t31 97.5v54q-25 -7 -58.5 -14t-81.5 -7q-106 0 -154.5 52t-48.5 146v290
q0 14 5 19t19 5h42q13 0 18 -5t5 -19v-287q0 -60 30.5 -89.5t95.5 -29.5q42 0 74 7t54 14v385q0 14 5 19t19 5h41v0z" />
    <glyph glyph-name="z" unicode="z" horiz-adv-x="463" 
d="M409 81q13 0 18 -5t5 -19v-33q0 -14 -5 -19t-18 -5h-355q-14 0 -19 5t-5 19v33q0 9 2 13.5t7 11.5l273 353h-254q-13 0 -18 5t-5 19v33q0 14 5 19t18 5h346q14 0 19 -5t5 -19v-33q0 -9 -2 -14t-7 -13l-275 -351h265v0z" />
    <glyph glyph-name="braceleft" unicode="{" horiz-adv-x="333" 
d="M292 856q14 0 19 -5t5 -19v-34q0 -13 -5 -18t-19 -5h-45q-27 0 -39 -14t-12 -40v-244q0 -48 -18.5 -78t-50.5 -46q38 -14 53.5 -45t15.5 -79v-241q0 -26 12 -40t39 -14h45q14 0 19 -5t5 -18v-34q0 -14 -5 -19t-19 -5h-47q-75 0 -104.5 31.5t-29.5 98.5v234q0 40 -15.5 65
t-59.5 25h-8q-20 0 -20 24v44q0 12 4 17.5t15 5.5h9q44 0 59.5 25.5t15.5 65.5v236q0 68 29.5 99.5t103.5 31.5h48v0z" />
    <glyph glyph-name="bar" unicode="|" horiz-adv-x="215" 
d="M127 856q13 0 18 -5t5 -19v-955q0 -14 -5 -19t-18 -5h-38q-14 0 -19 5t-5 19v955q0 14 5 19t19 5h38v0z" />
    <glyph glyph-name="braceright" unicode="}" horiz-adv-x="333" 
d="M89 856q74 0 103.5 -31.5t29.5 -99.5v-236q0 -40 15.5 -65.5t59.5 -25.5h9q11 0 15 -5.5t4 -17.5v-44q0 -24 -20 -24h-8q-44 0 -59.5 -25t-15.5 -65v-234q0 -67 -29.5 -98.5t-104.5 -31.5h-48q-13 0 -18 5t-5 19v34q0 23 23 23h46q27 0 39 14t12 40v241q0 48 15.5 79
t53.5 45q-32 16 -50.5 46t-18.5 78v244q0 26 -12 40t-39 14h-46q-23 0 -23 23v34q0 14 5 19t18 5h49v0z" />
    <glyph glyph-name="asciitilde" unicode="~" horiz-adv-x="558" 
d="M68 335q26 23 54.5 36t66.5 13q29 0 51 -6t41 -13t37.5 -13t40.5 -6q23 0 40.5 8t32.5 21q11 9 17.5 9t17.5 -10l24 -23q11 -11 11 -19t-11 -18q-25 -23 -54 -36t-67 -13q-29 0 -51 6t-41 13t-37.5 13t-40.5 6q-23 0 -40 -7.5t-33 -21.5q-11 -10 -17.5 -9.5t-16.5 10.5
l-25 23q-11 11 -11 19t11 18z" />
    <glyph glyph-name="exclamdown" unicode="&#xa1;" horiz-adv-x="213" 
d="M103 412q-29 0 -40 11t-11 40v7q0 29 11 40t40 11h6q29 0 40 -11t11 -40v-7q0 -29 -11 -40t-40 -11h-6zM84 -225q-25 0 -24 23l11 508q0 14 4.5 19t18.5 5h24q14 0 18.5 -5t5.5 -19l11 -508q1 -23 -24 -23h-45z" />
    <glyph glyph-name="cent" unicode="&#xa2;" horiz-adv-x="535" 
d="M472 157q13 -5 17.5 -12.5t-1.5 -21.5q-20 -57 -61 -91t-109 -42v-50q0 -14 -5 -19t-19 -5h-42q-14 0 -19 5t-5 19v48q-90 10 -133 62t-43 137v143q0 83 43 134.5t133 62.5v59q0 14 5 19t19 5h42q14 0 19 -5t5 -19v-59q72 -8 112 -42.5t56 -87.5q5 -14 1.5 -21.5
t-17.5 -12.5l-34 -11q-14 -6 -21.5 -2t-12.5 18q-14 42 -44 63t-86 21q-66 0 -98.5 -31t-32.5 -87v-151q0 -56 33 -87.5t98 -31.5q54 0 85.5 22.5t45.5 64.5q5 14 12.5 17.5t21.5 -1.5l35 -10v0z" />
    <glyph glyph-name="sterling" unicode="&#xa3;" horiz-adv-x="640" 
d="M132 525q0 40 13.5 76.5t41.5 64t69.5 43.5t97.5 16q95 0 152 -38.5t86 -115.5q10 -25 -17 -33l-41 -15q-14 -5 -20.5 -1t-13.5 18q-22 52 -55 73.5t-87 21.5q-64 0 -95 -33.5t-31 -80.5v-141h240q15 0 20.5 -6t5.5 -20v-32q0 -14 -5.5 -20t-20.5 -6h-240v-105
q0 -71 -50 -106v-4q23 2 59 5.5t82 3.5h239q15 0 20.5 -6t5.5 -20v-38q0 -14 -5.5 -20t-20.5 -6h-497q-15 0 -20 6t-5 20v39q0 9 3.5 15t11.5 6h12q37 7 51 36.5t14 67.5v106h-60q-26 0 -26 26v32q0 26 26 26h60v145v0z" />
    <glyph glyph-name="currency" unicode="&#xa4;" horiz-adv-x="606" 
d="M542 161q18 -17 0 -33l-29 -30q-16 -16 -34 0l-51 52q-54 -40 -124 -40q-69 0 -125 39l-51 -52q-10 -9 -17.5 -9t-16.5 9l-30 29q-16 18 0 34l53 52q-40 54 -40 125q0 35 10 66t29 57l-52 52q-18 18 0 34l29 29q10 10 17 10t17 -10l51 -51q27 19 59 29.5t67 10.5
t66 -10.5t57 -28.5l51 51q10 10 17 10t17 -10l29 -29q10 -10 10 -17t-10 -17l-51 -51q20 -26 30.5 -58t10.5 -67t-10.5 -66.5t-28.5 -58.5zM304 482q-30 0 -57 -11t-46.5 -30.5t-31.5 -46t-12 -57.5q0 -30 12 -57t31.5 -46.5t46.5 -31t57 -11.5t56.5 11.5t46 31t31 46.5
t11.5 57q0 31 -11.5 57.5t-31 46t-46 30.5t-56.5 11z" />
    <glyph glyph-name="yen" unicode="&#xa5;" horiz-adv-x="646" 
d="M602 710q14 0 17 -7.5t-4 -18.5l-208 -325h102q23 0 23 -23v-23q0 -14 -5 -18.5t-18 -4.5h-138v-77h138q23 0 23 -23v-24q0 -23 -23 -23h-138v-117q0 -14 -5.5 -20t-20.5 -6h-44q-15 0 -20.5 6t-5.5 20v117h-139q-23 0 -23 23v24q0 23 23 23h139v77h-139q-13 0 -18 4.5
t-5 18.5v23q0 23 23 23h105l-210 325q-6 11 -3 18.5t17 7.5h48q23 0 32.5 -3t18.5 -20l181 -295l182 295q8 17 17.5 20t32.5 3h45v0z" />
    <glyph glyph-name="brokenbar" unicode="&#xa6;" horiz-adv-x="224" 
d="M131 856q14 0 19 -5t5 -19v-377q0 -14 -5 -19t-19 -5h-38q-14 0 -19 5t-5 19v377q0 14 5 19t19 5h38zM131 279q14 0 19 -5t5 -19v-377q0 -14 -5 -19t-19 -5h-38q-14 0 -19 5t-5 19v377q0 14 5 19t19 5h38z" />
    <glyph glyph-name="section" unicode="&#xa7;" horiz-adv-x="601" 
d="M59 535q0 42 14.5 77t44 61t75 40.5t107.5 14.5q93 0 151 -38.5t90 -115.5q7 -14 3.5 -22t-19.5 -15l-37 -17q-14 -6 -21.5 -3t-15.5 17q-20 51 -56.5 76.5t-94.5 25.5q-75 0 -108.5 -26.5t-33.5 -74.5q0 -29 12.5 -46t34 -27t49 -15t57.5 -9q40 -5 81.5 -13t75.5 -27
t55.5 -51.5t21.5 -87.5q0 -26 -7 -47t-18 -38.5t-25 -30.5t-28 -23q37 -18 61 -52.5t24 -96.5q0 -42 -15.5 -77.5t-47 -61t-78.5 -39.5t-110 -14q-96 0 -160 41t-92 120q-10 26 18 36l38 13q15 5 22.5 2t13.5 -19q19 -53 59.5 -78t100.5 -25q80 0 117 26.5t37 74.5
q0 29 -13 46t-34.5 27t-49.5 14.5t-58 7.5q-42 4 -86.5 11t-81 24.5t-59.5 51t-23 90.5q0 28 8 51t21.5 41t30.5 31t35 23q-38 19 -62 53t-24 94zM291 347q-17 2 -32.5 4.5t-31.5 5.5q-9 -4 -22 -11.5t-25.5 -19.5t-21.5 -29.5t-9 -42.5q0 -30 13.5 -48.5t36 -28.5t52 -14.5
t61.5 -7.5q17 -2 33.5 -4t33.5 -4q8 4 20 12.5t23 21t19 29.5t8 40q0 27 -13.5 44.5t-35.5 28t-50.5 16t-58.5 8.5z" />
    <glyph glyph-name="dieresis" unicode="&#xa8;" horiz-adv-x="439" 
d="M121 697q25 0 33.5 -9t8.5 -32v-9q0 -23 -8.5 -32t-33.5 -9h-6q-24 0 -33 9t-9 32v9q0 23 9 32t33 9h6zM318 697q24 0 33 -9t9 -32v-9q0 -23 -9 -32t-33 -9h-6q-24 0 -33 9t-9 32v9q0 23 9 32t33 9h6z" />
    <glyph glyph-name="copyright" unicode="&#xa9;" horiz-adv-x="804" 
d="M43 351q0 76 28 141.5t76.5 114t114 76t141.5 27.5q75 0 140 -27.5t113.5 -76t76 -114t27.5 -141.5q0 -75 -27.5 -140.5t-76 -114t-113.5 -76.5t-140 -28q-76 0 -141.5 28t-114 76.5t-76.5 114t-28 140.5zM698 351q0 63 -23 117t-62.5 94t-93.5 62.5t-116 22.5
q-63 0 -117.5 -22.5t-94 -62.5t-62.5 -94t-23 -117t23 -117t62.5 -94t94 -63t117.5 -23q62 0 116 23t93.5 63t62.5 94t23 117zM247 404q0 66 39 103.5t114 37.5q63 0 98 -25t50 -70q7 -20 -12 -25l-22 -8q-11 -4 -15.5 -1.5t-8.5 13.5q-10 31 -29.5 44t-60.5 13
q-46 0 -68.5 -21.5t-22.5 -60.5v-111q0 -39 23 -60.5t68 -21.5q38 0 59.5 14.5t30.5 43.5q5 11 10 14t16 -1l21 -8q11 -4 13.5 -9t-1.5 -16q-16 -46 -51 -71.5t-98 -25.5q-74 0 -113.5 37.5t-39.5 103.5v111z" />
    <glyph glyph-name="ordfeminine" unicode="&#xaa;" horiz-adv-x="364" 
d="M61 614q20 29 52 42.5t70 13.5q36 0 60 -9t39 -25.5t21 -39t6 -50.5v-126q0 -23 -6.5 -32.5t-25.5 -17.5q-16 -7 -40 -11t-58 -4q-38 0 -62.5 6.5t-39.5 18t-21 28t-6 37.5q0 45 28 69.5t103 24.5q21 0 36 -1t23 -3v17q0 29 -12.5 44t-46.5 15q-23 0 -38 -9t-27 -23
q-10 -9 -24 -4l-19 10q-14 6 -16.5 12.5t4.5 16.5zM240 485q-10 1 -25.5 2t-37.5 1q-35 0 -47 -10.5t-12 -30.5t13 -29t45 -9q22 0 34.5 2t18.5 4q7 3 9 6t2 12v52z" />
    <glyph glyph-name="guillemotleft" unicode="&#xab;" 
d="M289 113q9 -8 9 -14.5t-9 -15.5l-28 -28q-8 -8 -15 -8t-15 8l-193 193q-8 8 -8 14.5t8 14.5l196 197q16 16 30 0l27 -27q8 -8 8 -14.5t-8 -14.5l-152 -154zM522 113q14 -14 0 -30l-28 -28q-9 -8 -16 -8t-15 8l-192 193q-9 8 -9 14.5t9 14.5l196 197q8 8 14.5 8.5
t15.5 -8.5l26 -27q8 -8 8 -14.5t-8 -14.5l-153 -154z" />
    <glyph glyph-name="logicalnot" unicode="&#xac;" horiz-adv-x="584" 
d="M497 399q14 0 19 -5t5 -19v-212q0 -14 -5 -19t-19 -5h-41q-14 0 -19 5t-5 19v152h-350q-14 0 -19 5t-5 19v36q0 14 5 19t19 5h415v0z" />
    <glyph glyph-name="registered" unicode="&#xae;" horiz-adv-x="475" 
d="M43 516q0 40 15.5 75t42 61.5t62 42t75.5 15.5t75 -15.5t61 -42t41.5 -61.5t15.5 -75t-15.5 -75.5t-41.5 -61.5t-61 -41.5t-75 -15.5t-75.5 15.5t-62 41.5t-42 61.5t-15.5 75.5zM85 516q0 -32 12 -60t33 -49t49 -33.5t60 -12.5t60 12.5t48.5 33.5t32.5 49t12 60t-12 60
t-32.5 49t-48.5 33t-60 12t-60 -12t-49 -33t-33 -49t-12 -60zM258 615q32 0 51 -17t19 -49q0 -47 -43 -60l35 -58q9 -14 -7 -14h-18q-8 0 -11 1.5t-5 6.5l-35 60h-46v-59q0 -9 -9 -9h-18q-10 0 -10 9v178q0 7 2 9t10 2h85zM257 519q32 0 32 30q0 31 -32 31h-59v-61h59z" />
    <glyph glyph-name="macron" unicode="&#xaf;" horiz-adv-x="352" 
d="M293 686q14 0 18.5 -4.5t4.5 -18.5v-20q0 -14 -4.5 -18t-18.5 -4h-234q-14 0 -18 4t-4 18v20q0 14 5 18.5t17 4.5h234v0z" />
    <glyph glyph-name="degree" unicode="&#xb0;" horiz-adv-x="392" 
d="M353 555q0 -32 -12.5 -60.5t-34 -50.5t-50 -34.5t-60.5 -12.5q-33 0 -61.5 12.5t-49.5 33.5t-33.5 50t-12.5 62t12.5 62t33.5 50t49.5 33t61.5 12t61.5 -12t49.5 -33t33.5 -50t12.5 -62zM111 554q0 -17 6.5 -32.5t18 -27t27 -18.5t33.5 -7t33.5 7t27 18.5t18.5 27t7 32.5
q0 18 -7 33.5t-18.5 27t-27 18.5t-33.5 7t-33.5 -7t-27 -18.5t-18 -27t-6.5 -33.5z" />
    <glyph glyph-name="plusminus" unicode="&#xb1;" horiz-adv-x="618" 
d="M519 434q15 0 20.5 -6t5.5 -20v-25q0 -15 -5.5 -20.5t-20.5 -5.5h-169v-97q0 -26 -26 -26h-29q-15 0 -20.5 6t-5.5 20v97h-170q-14 0 -20 5.5t-6 20.5v25q0 26 26 26h170v101q0 14 5.5 20t20.5 6h29q26 0 26 -26v-101h169zM519 190q15 0 20.5 -6t5.5 -20v-25
q0 -15 -5.5 -20.5t-20.5 -5.5h-420q-14 0 -20 5.5t-6 20.5v25q0 26 26 26h420z" />
    <glyph glyph-name="uni00B2" unicode="&#xb2;" horiz-adv-x="359" 
d="M39 716q5 13 14.5 31t26 34t42 27t62.5 11q34 0 60 -9.5t43.5 -26.5t26.5 -40t9 -49q0 -28 -7.5 -48t-21.5 -35t-35.5 -26t-49.5 -20l-56 -17q-44 -14 -44 -47v-17h186q14 0 18.5 -5.5t4.5 -17.5v-24q0 -12 -4.5 -17t-18.5 -5h-234q-14 0 -19.5 5t-5.5 19v35
q0 50 17.5 79t64.5 47l57 23q15 6 28 11t22.5 12t15 17.5t5.5 27.5q0 24 -16 40t-47 16q-21 0 -34 -7t-21 -16.5t-11.5 -18.5t-5.5 -13q-7 -14 -13 -18t-21 1l-22 7q-13 5 -17 12.5t1 21.5z" />
    <glyph glyph-name="uni00B3" unicode="&#xb3;" horiz-adv-x="365" 
d="M35 715q17 52 53 78t99 26t97.5 -31t34.5 -82q0 -30 -9.5 -50.5t-35.5 -34.5q32 -16 44.5 -42.5t12.5 -58.5q0 -53 -35.5 -83t-108.5 -30q-65 0 -101 25.5t-53 74.5q-5 15 -2 22t15 12l22 7q14 5 21 1.5t13 -17.5q9 -29 27.5 -43t57.5 -14q35 0 52 14.5t17 38.5
q0 23 -13 38t-37 15h-50q-15 0 -19.5 4.5t-4.5 18.5v20q0 17 4 21t21 4h44q23 0 35 13t12 36q0 25 -15 39t-44 14q-36 0 -55 -14t-29 -43q-6 -17 -14 -21t-25 3l-16 6q-12 5 -16 12t1 21z" />
    <glyph glyph-name="acute" unicode="&#xb4;" horiz-adv-x="257" 
d="M181 727q11 7 22.5 8.5t21.5 -9.5l20 -24q8 -11 8 -17t-12 -11l-175 -83q-11 -5 -18.5 -5.5t-12.5 6.5l-11 15q-8 10 -8 15.5t9 10.5l156 94v0z" />
    <glyph glyph-name="mu" unicode="&#xb5;" horiz-adv-x="553" 
d="M470 516q13 0 18 -5t5 -19v-417q0 -24 -7.5 -35t-30.5 -21q-35 -14 -77 -24t-94 -10q-94 0 -134 54l1 -235q0 -14 -5 -19t-19 -5h-42q-14 0 -19 5t-5 19v688q0 14 5 19t19 5h42q14 0 19 -5t5 -19v-306q0 -119 125 -119q37 0 64.5 5t49.5 12q9 4 11.5 9t2.5 13v386
q0 14 5 19t19 5h42v0z" />
    <glyph glyph-name="paragraph" unicode="&#xb6;" horiz-adv-x="495" 
d="M401 710q14 0 19 -5t5 -19v-751q0 -14 -5 -19t-19 -5h-36q-14 0 -19 5t-5 19v685h-55v-685q0 -14 -5 -19t-19 -5h-36q-14 0 -18.5 5t-4.5 19v437q-37 1 -67 13.5t-51.5 34.5t-33.5 52.5t-12 67.5q0 38 12 69.5t34.5 54t53.5 34.5t69 12h193v0z" />
    <glyph glyph-name="periodcentered" unicode="&#xb7;" horiz-adv-x="230" 
d="M118 332q29 0 40 -10.5t11 -39.5v-8q0 -29 -11 -40t-40 -11h-6q-29 0 -40 11t-11 40v8q0 29 11 39.5t40 10.5h6v0z" />
    <glyph glyph-name="cedilla" unicode="&#xb8;" horiz-adv-x="251" 
d="M135 -66q5 1 9.5 1.5t10.5 0.5q40 0 63.5 -24t20.5 -61q-2 -27 -12.5 -45t-27.5 -29.5t-39 -16.5t-46 -5q-20 0 -41.5 4t-35.5 12q-9 4 -11.5 9t-2.5 14l-1 24q0 6 2.5 10t10.5 0q13 -8 27 -14t40 -6q31 0 45.5 13t14.5 34q0 35 -52 36q-16 0 -29 -3q-21 -1 -12 20l37 92
h54l-25 -66v0z" />
    <glyph glyph-name="uni00B9" unicode="&#xb9;" horiz-adv-x="283" 
d="M202 811q15 0 21 -6t6 -21v-343q0 -15 -6 -20.5t-21 -5.5h-23q-15 0 -20.5 5.5t-5.5 20.5v275l-86 -48q-24 -13 -37 9l-10 19q-8 14 -4.5 21.5t15.5 14.5l126 71q13 8 31 8h14v0z" />
    <glyph glyph-name="ordmasculine" unicode="&#xba;" horiz-adv-x="369" 
d="M49 549q0 57 34.5 89t100.5 32q67 0 101 -32t34 -89v-73q0 -57 -34 -88.5t-101 -31.5q-66 0 -100.5 31.5t-34.5 88.5v73zM247 552q0 25 -15.5 40t-47.5 15q-31 0 -46.5 -15t-15.5 -40v-78q0 -26 15.5 -40.5t46.5 -14.5q32 0 47.5 14.5t15.5 40.5v78z" />
    <glyph glyph-name="guillemotright" unicode="&#xbb;" 
d="M285 418q-9 8 -8.5 14.5t8.5 14.5l26 27q16 17 30 0l196 -197q8 -8 8 -14.5t-8 -14.5l-192 -193q-9 -8 -15.5 -8t-15.5 8l-28 28q-15 16 0 30l151 151zM53 418q-8 8 -8.5 14.5t8.5 14.5l26 27q8 9 15 8.5t15 -8.5l196 -197q8 -8 8 -14.5t-8 -14.5l-193 -193
q-15 -15 -30 0l-28 28q-15 16 0 30l151 151z" />
    <glyph glyph-name="onequarter" unicode="&#xbc;" horiz-adv-x="794" 
d="M216 712q15 0 21 -6t6 -21v-343q0 -15 -6 -20.5t-21 -5.5h-23q-15 0 -20.5 5.5t-5.5 20.5v275l-86 -48q-24 -13 -37 9l-11 19q-7 14 -3.5 21.5t15.5 14.5l125 71q13 8 32 8h14zM680 710q14 0 17.5 -7.5t-4.5 -17.5l-486 -661q-12 -16 -20.5 -20t-31.5 -4h-31
q-14 0 -17.5 8t4.5 19l486 661q11 14 19.5 18t29.5 4h34zM684 396q16 0 19.5 -4.5t3.5 -19.5v-215h31q14 0 18 -4t4 -17v-22q0 -13 -4 -17t-18 -4h-31v-71q0 -13 -4 -17.5t-17 -4.5h-29q-14 0 -17.5 4.5t-3.5 17.5v71h-181q-14 0 -18 4.5t-4 18.5v19q0 10 1 14t6 11l180 222
q8 9 14 11.5t18 2.5h32zM636 157v145l-118 -145h118z" />
    <glyph glyph-name="onehalf" unicode="&#xbd;" horiz-adv-x="839" 
d="M216 717q15 0 20.5 -6t5.5 -21v-343q0 -15 -5.5 -20.5t-20.5 -5.5h-23q-15 0 -21 5.5t-6 20.5v275l-85 -48q-24 -13 -37 9l-11 19q-8 13 -4 21t16 15l125 71q13 8 31 8h15zM674 710q14 0 17.5 -7.5t-4.5 -17.5l-486 -661q-11 -16 -20 -20t-32 -4h-31q-14 0 -17.5 8
t4.5 19l487 661q11 14 19 18t29 4h34zM514 301q5 13 14.5 31t26 34t42 27t62.5 11q34 0 60 -9.5t43.5 -26.5t26.5 -40t9 -49q0 -56 -29 -83t-85 -45l-57 -18q-43 -14 -43 -46v-18h186q14 0 18.5 -5.5t4.5 -17.5v-23q0 -12 -4.5 -17.5t-18.5 -5.5h-234q-14 0 -19.5 5t-5.5 19
v35q0 50 17 79.5t65 47.5l56 22q15 6 28 11t22.5 12t15 17.5t5.5 27.5q0 24 -15.5 40t-46.5 16q-21 0 -34 -7t-21 -16.5t-11.5 -18.5t-5.5 -13q-7 -14 -13 -18t-21 1l-22 8q-13 5 -17.5 12t1.5 21z" />
    <glyph glyph-name="threequarters" unicode="&#xbe;" horiz-adv-x="828" 
d="M41 622q17 52 53 77.5t99 25.5t97.5 -31t34.5 -82q0 -29 -9.5 -50t-35.5 -35q32 -15 44.5 -42t12.5 -59q0 -52 -35.5 -82.5t-108.5 -30.5q-65 0 -101 25.5t-53 75.5q-5 15 -2 22t15 11l22 8q14 5 21 1.5t13 -18.5q9 -29 27.5 -43t57.5 -14q35 0 52 15t17 39q0 23 -13 38
t-38 15h-50q-14 0 -18.5 4t-4.5 19v20q0 17 4 21t21 4h44q23 0 35 13t12 35q0 26 -15.5 40t-43.5 14q-36 0 -55.5 -14t-28.5 -43q-7 -17 -15 -21t-25 2l-15 6q-12 5 -16 12.5t1 21.5zM717 710q14 0 17.5 -7.5t-4.5 -17.5l-486 -661q-11 -16 -20 -20t-32 -4h-31
q-14 0 -17.5 8t4.5 19l487 661q11 14 19 18t29 4h34zM721 396q15 0 19 -4.5t4 -19.5v-215h30q15 0 19 -4t4 -17v-22q0 -13 -4 -17t-19 -4h-30v-71q0 -13 -4 -17.5t-17 -4.5h-30q-13 0 -16.5 4.5t-3.5 17.5v71h-181q-14 0 -18.5 4.5t-4.5 18.5v19q0 10 1.5 14t6.5 11l180 222
q7 9 13 11.5t18 2.5h33zM673 302l-119 -145h119v145z" />
    <glyph glyph-name="questiondown" unicode="&#xbf;" horiz-adv-x="558" 
d="M300 412q-29 0 -39.5 10.5t-10.5 39.5v8q0 29 10.5 40t39.5 11h7q29 0 40 -11t11 -40v-8q0 -29 -11 -39.5t-40 -10.5h-7zM529 -60q-14 -36 -36 -66.5t-53 -52.5t-72.5 -34t-95.5 -12q-57 0 -102 16.5t-76 44.5t-47.5 65.5t-16.5 79.5q0 54 15 91t38.5 62.5t51 42.5
t52.5 33q15 10 29 20.5t24.5 23.5t17 29.5t6.5 37.5q0 14 5.5 19.5t19.5 5.5h31q14 0 19.5 -5.5t5.5 -19.5q0 -37 -9 -63.5t-23.5 -47t-33 -35.5t-38.5 -28l-42 -28t-37 -32t-26 -42.5t-10 -58.5q0 -54 37.5 -90t110.5 -36q70 0 108.5 30t59.5 80q7 14 13.5 18t20.5 -1
l37 -14q14 -5 17.5 -12t-1.5 -21z" />
    <glyph glyph-name="Agrave" unicode="&#xc0;" horiz-adv-x="649" 
d="M235 895q10 12 21 10.5t23 -8.5l157 -93q16 -9 1 -25l-11 -15q-5 -7 -12 -6.5t-19 4.5l-176 82q-12 5 -12.5 10.5t8.5 16.5zM637 26q5 -13 1 -19.5t-19 -6.5h-39q-25 0 -34 4.5t-14 18.5l-62 163h-296l-62 -163q-5 -14 -14.5 -18.5t-33.5 -4.5h-35q-15 0 -19 6.5t1 19.5
l260 664q5 14 12 18t21 4h40q14 0 21 -4t12 -17zM343 528q-6 18 -9.5 34.5t-5.5 29.5t-2.5 21t-0.5 9h-6q-1 -2 -3 -30t-14 -63l-101 -264h242z" />
    <glyph glyph-name="Aacute" unicode="&#xc1;" horiz-adv-x="649" 
d="M371 900q12 7 23 8.5t21 -9.5l20 -24q8 -11 8 -17t-12 -11l-175 -83q-11 -5 -18 -5.5t-12 6.5l-12 15q-8 10 -8 15t10 10zM637 26q5 -13 1 -19.5t-19 -6.5h-39q-25 0 -34 4.5t-14 18.5l-62 163h-296l-62 -163q-5 -14 -14.5 -18.5t-33.5 -4.5h-35q-15 0 -19 6.5t1 19.5
l260 664q5 14 12 18t21 4h40q14 0 21 -4t12 -17zM343 528q-6 18 -9.5 34.5t-5.5 29.5t-2.5 21t-0.5 9h-6q-1 -2 -3 -30t-14 -63l-101 -264h242z" />
    <glyph glyph-name="Acircumflex" unicode="&#xc2;" horiz-adv-x="649" 
d="M331 905q14 0 21.5 -3t22.5 -18l113 -103q7 -8 5.5 -14t-17.5 -6h-35q-15 0 -23 2.5t-16 11.5l-78 71l-81 -71q-9 -10 -15.5 -12t-21.5 -2h-33q-15 0 -17 6t6 14l113 103q7 7 12 11.5t10 6.5t10.5 2.5t13.5 0.5h10zM637 26q5 -13 1 -19.5t-19 -6.5h-39q-25 0 -34 4.5
t-14 18.5l-62 163h-296l-62 -163q-5 -14 -14.5 -18.5t-33.5 -4.5h-35q-15 0 -19 6.5t1 19.5l260 664q5 14 12 18t21 4h40q14 0 21 -4t12 -17zM343 528q-6 18 -9.5 34.5t-5.5 29.5t-2.5 21t-0.5 9h-6q-1 -2 -3 -30t-14 -63l-101 -264h242z" />
    <glyph glyph-name="Atilde" unicode="&#xc3;" horiz-adv-x="649" 
d="M459 888q9 0 12 -3.5t3 -11.5q0 -56 -19.5 -80.5t-61.5 -24.5q-25 0 -43 10t-33 21.5t-29.5 21.5t-32.5 10q-33 0 -33 -48q0 -15 -15 -15h-25q-15 0 -15 15q0 57 20.5 81t59.5 24q26 0 44.5 -10t34 -21.5t29.5 -21.5t32 -10q17 0 24.5 12.5t7.5 35.5q0 8 3 11.5t12 3.5
h25zM637 26q5 -13 1 -19.5t-19 -6.5h-39q-25 0 -34 4.5t-14 18.5l-62 163h-296l-62 -163q-5 -14 -14.5 -18.5t-33.5 -4.5h-35q-15 0 -19 6.5t1 19.5l260 664q5 14 12 18t21 4h40q14 0 21 -4t12 -17zM343 528q-6 18 -9.5 34.5t-5.5 29.5t-2.5 21t-0.5 9h-6q-1 -2 -3 -30
t-14 -63l-101 -264h242z" />
    <glyph glyph-name="Adieresis" unicode="&#xc4;" horiz-adv-x="649" 
d="M229 875q24 0 33 -9t9 -32v-9q0 -23 -9 -32t-33 -9h-7q-23 0 -32 9t-9 32v9q0 23 9 32t32 9h7zM426 875q23 0 32 -9t9 -32v-9q0 -23 -9 -32t-32 -9h-7q-24 0 -33 9t-9 32v9q0 23 9 32t33 9h7zM637 26q5 -13 1 -19.5t-19 -6.5h-39q-25 0 -34 4.5t-14 18.5l-62 163h-296
l-62 -163q-5 -14 -14.5 -18.5t-33.5 -4.5h-35q-15 0 -19 6.5t1 19.5l260 664q5 14 12 18t21 4h40q14 0 21 -4t12 -17zM343 528q-6 18 -9.5 34.5t-5.5 29.5t-2.5 21t-0.5 9h-6q-1 -2 -3 -30t-14 -63l-101 -264h242z" />
    <glyph glyph-name="Aring" unicode="&#xc5;" horiz-adv-x="649" 
d="M209 772q0 51 32 82.5t85 31.5q51 0 82 -31.5t31 -82.5q0 -69 -57 -94l255 -652q5 -13 1 -19.5t-19 -6.5h-39q-25 0 -34 4.5t-14 18.5l-62 163h-296l-62 -163q-5 -14 -14.5 -18.5t-33.5 -4.5h-35q-15 0 -19 6.5t1 19.5l255 654q-26 11 -41.5 35t-15.5 57zM385 772
q0 28 -16 44t-43 16q-29 0 -46 -16t-17 -44q0 -26 17 -42t46 -16q27 0 43 16t16 42zM343 528q-6 18 -9.5 34.5t-5.5 29.5t-2.5 21t-0.5 9h-6q-1 -2 -3 -30t-14 -63l-101 -264h242z" />
    <glyph glyph-name="AE" unicode="&#xc6;" horiz-adv-x="843" 
d="M782 90q15 0 20.5 -6t5.5 -20v-38q0 -14 -5.5 -20t-20.5 -6h-334q-15 0 -21 6t-6 20v137h-232l-83 -140q-8 -12 -16 -17.5t-33 -5.5h-41q-15 0 -19 6.5t1 19.5l412 662q8 12 13.5 17t19.5 5h327q15 0 20.5 -6t5.5 -20v-38q0 -14 -5.5 -20t-20.5 -6h-255v-216h209
q14 0 20 -5.5t6 -20.5v-37q0 -15 -6 -21t-20 -6h-209v-224h267zM237 243h184v305z" />
    <glyph glyph-name="Ccedilla" unicode="&#xc7;" horiz-adv-x="638" 
d="M586 191q14 -5 18 -12.5t-1 -21.5q-26 -78 -84.5 -122t-164.5 -49l-20 -52q10 2 20 2q39 0 63 -24t21 -61q-2 -27 -13 -45t-28 -29.5t-39 -16.5t-46 -5q-19 0 -41 4t-36 12q-8 4 -11 9t-3 14v24q0 6 2.5 10t9.5 0q13 -8 27.5 -14t40.5 -6q30 0 45 13t15 34q0 35 -52 36
q-17 0 -30 -3q-21 -2 -12 20l32 79q-119 8 -182.5 75.5t-63.5 178.5v228q0 119 71.5 187.5t208.5 68.5q113 0 177.5 -43.5t91.5 -126.5q5 -14 1 -21.5t-18 -12.5l-41 -14q-14 -5 -21.5 -1.5t-12.5 17.5q-19 57 -60.5 84.5t-116.5 27.5q-90 0 -136.5 -43t-46.5 -122v-230
q0 -78 47 -121.5t136 -43.5q77 0 118 28.5t60 85.5q5 15 12.5 18.5t21.5 -1.5l41 -15v0z" />
    <glyph glyph-name="Egrave" unicode="&#xc8;" 
d="M213 895q9 12 20.5 10.5t23.5 -8.5l156 -93q10 -5 10 -10.5t-8 -14.5l-11 -15q-5 -7 -12.5 -6.5t-18.5 4.5l-177 82q-11 5 -11.5 10.5t8.5 16.5zM502 710q15 0 20.5 -6t5.5 -20v-38q0 -14 -5.5 -20t-20.5 -6h-331v-215h285q15 0 20.5 -6t5.5 -21v-37q0 -15 -5.5 -20.5
t-20.5 -5.5h-285v-225h343q15 0 20.5 -6t5.5 -20v-38q0 -14 -5.5 -20t-20.5 -6h-414q-26 0 -26 26v658q0 26 26 26h402z" />
    <glyph glyph-name="Eacute" unicode="&#xc9;" 
d="M349 900q11 7 22.5 8.5t21.5 -9.5l20 -24q8 -11 8 -17t-12 -11l-175 -83q-11 -5 -18.5 -5.5t-12.5 6.5l-11 15q-8 10 -8 15t9 10zM502 710q15 0 20.5 -6t5.5 -20v-38q0 -14 -5.5 -20t-20.5 -6h-331v-215h285q15 0 20.5 -6t5.5 -21v-37q0 -15 -5.5 -20.5t-20.5 -5.5h-285
v-225h343q15 0 20.5 -6t5.5 -20v-38q0 -14 -5.5 -20t-20.5 -6h-414q-26 0 -26 26v658q0 26 26 26h402z" />
    <glyph glyph-name="Ecircumflex" unicode="&#xca;" 
d="M309 905q14 0 21 -3t23 -18l113 -103q7 -8 5 -14t-17 -6h-35q-15 0 -23 2.5t-16 11.5l-78 71l-81 -71q-9 -10 -15.5 -12t-21.5 -2h-33q-15 0 -17 6t5 14l114 103q7 7 12 11.5t10 6.5t10.5 2.5t13.5 0.5h10zM502 710q15 0 20.5 -6t5.5 -20v-38q0 -14 -5.5 -20t-20.5 -6
h-331v-215h285q15 0 20.5 -6t5.5 -21v-37q0 -15 -5.5 -20.5t-20.5 -5.5h-285v-225h343q15 0 20.5 -6t5.5 -20v-38q0 -14 -5.5 -20t-20.5 -6h-414q-26 0 -26 26v658q0 26 26 26h402z" />
    <glyph glyph-name="Edieresis" unicode="&#xcb;" 
d="M206 875q25 0 33.5 -9t8.5 -32v-9q0 -23 -8.5 -32t-33.5 -9h-6q-24 0 -33 9t-9 32v9q0 23 9 32t33 9h6zM403 875q24 0 33 -9t9 -32v-9q0 -23 -9 -32t-33 -9h-6q-24 0 -33 9t-9 32v9q0 23 9 32t33 9h6zM502 710q15 0 20.5 -6t5.5 -20v-38q0 -14 -5.5 -20t-20.5 -6h-331
v-215h285q15 0 20.5 -6t5.5 -21v-37q0 -15 -5.5 -20.5t-20.5 -5.5h-285v-225h343q15 0 20.5 -6t5.5 -20v-38q0 -14 -5.5 -20t-20.5 -6h-414q-26 0 -26 26v658q0 26 26 26h402z" />
    <glyph glyph-name="Igrave" unicode="&#xcc;" horiz-adv-x="245" 
d="M34 895q10 12 21 10.5t23 -8.5l157 -93q16 -9 1 -25l-11 -15q-5 -7 -12.5 -6.5t-18.5 4.5l-177 82q-11 5 -11.5 10.5t8.5 16.5zM74 684q0 14 6 20t21 6h44q26 0 26 -26v-658q0 -26 -26 -26h-44q-15 0 -21 6t-6 20v658z" />
    <glyph glyph-name="Iacute" unicode="&#xcd;" horiz-adv-x="245" 
d="M169 900q12 7 23.5 8.5t21.5 -9.5l19 -24q9 -11 9 -17t-12 -11l-175 -83q-12 -5 -19 -5.5t-12 6.5l-11 15q-8 10 -8 15t9 10zM74 684q0 26 26 26h44q15 0 21 -6t6 -20v-658q0 -14 -6 -20t-21 -6h-44q-26 0 -26 26v658z" />
    <glyph glyph-name="Icircumflex" unicode="&#xce;" horiz-adv-x="245" 
d="M130 905q14 0 21 -3t22 -18l113 -103q8 -8 6 -14t-17 -6h-36q-14 0 -22 2.5t-16 11.5l-79 71l-80 -71q-9 -10 -16 -12t-21 -2h-33q-16 0 -17.5 6t5.5 14l113 103q15 15 22.5 18t24.5 3h10zM74 684q0 26 26 26h44q15 0 21 -6t6 -20v-658q0 -14 -6 -20t-21 -6h-44
q-26 0 -26 26v658z" />
    <glyph glyph-name="Idieresis" unicode="&#xcf;" horiz-adv-x="245" 
d="M27 875q24 0 33 -9t9 -32v-9q0 -23 -9 -32t-33 -9h-7q-23 0 -32 9t-9 32v9q0 23 9 32t32 9h7zM224 875q23 0 32.5 -9t9.5 -32v-9q0 -23 -9.5 -32t-32.5 -9h-6q-24 0 -33.5 9t-9.5 32v9q0 23 9.5 32t33.5 9h6zM74 684q0 26 26 26h44q15 0 21 -6t6 -20v-658q0 -14 -6 -20
t-21 -6h-44q-26 0 -26 26v658z" />
    <glyph glyph-name="Eth" unicode="&#xd0;" horiz-adv-x="672" 
d="M331 710q70 0 124 -18.5t91 -52.5t56 -83t19 -110v-182q0 -61 -19 -110t-56 -83t-91 -52.5t-124 -18.5h-218q-26 0 -26 26v306h-67q-9 0 -12.5 3t-3.5 14v29q0 17 16 17h67v289q0 26 26 26h218zM524 447q0 83 -49.5 128t-143.5 45h-147v-225h154q10 0 13 -3.5t3 -13.5
v-29q0 -11 -3 -14t-13 -3h-154v-242h147q94 0 143.5 45t49.5 128v184z" />
    <glyph glyph-name="Ntilde" unicode="&#xd1;" horiz-adv-x="693" 
d="M482 888q16 0 16 -15q0 -56 -19.5 -80.5t-61.5 -24.5q-25 0 -43 10t-33 21.5t-30 21.5t-33 10q-33 0 -33 -48q0 -15 -14 -15h-26q-15 0 -15 15q0 57 20.5 81t59.5 24q26 0 44.5 -10t34 -21.5t30 -21.5t32.5 -10q16 0 24 12.5t8 35.5q0 15 14 15h25zM593 710q26 0 26 -26
v-658q0 -26 -26 -26h-44q-18 0 -27 13l-285 415q-15 23 -28.5 48t-24 47t-17.5 38t-11 21h-5q0 -7 2.5 -25.5t6 -43.5t6 -55.5t2.5 -61.5v-370q0 -14 -6 -20t-21 -6h-41q-26 0 -26 26v658q0 26 26 26h44q11 0 16.5 -3.5t9.5 -9.5l281 -408q17 -26 31 -51.5t24.5 -47.5
t18 -38.5t12.5 -22.5h5q0 8 -2.5 27t-5.5 44.5t-5.5 57t-2.5 64.5v362q0 14 5.5 20t20.5 6h41z" />
    <glyph glyph-name="Ograve" unicode="&#xd2;" horiz-adv-x="666" 
d="M244 905q10 12 21.5 10.5t22.5 -8.5l157 -93q9 -5 9.5 -10.5t-7.5 -14.5l-12 -15q-5 -7 -12 -6.5t-18 4.5l-177 82q-12 5 -12 10.5t8 16.5zM53 469q0 119 71.5 187.5t208.5 68.5t208.5 -68.5t71.5 -187.5v-228q0 -119 -71.5 -187.5t-208.5 -68.5t-208.5 68.5t-71.5 187.5
v228zM516 469q0 80 -47 123t-136 43t-136 -43t-47 -123v-228q0 -80 47 -123t136 -43t136 43t47 123v228z" />
    <glyph glyph-name="Oacute" unicode="&#xd3;" horiz-adv-x="666" 
d="M380 910q12 7 23.5 8.5t20.5 -9.5l20 -24q9 -11 8.5 -17t-11.5 -11l-176 -83q-11 -5 -18 -5.5t-12 6.5l-12 15q-8 10 -7.5 15t9.5 10zM53 469q0 119 71.5 187.5t208.5 68.5t208.5 -68.5t71.5 -187.5v-228q0 -119 -71.5 -187.5t-208.5 -68.5t-208.5 68.5t-71.5 187.5v228z
M516 469q0 80 -47 123t-136 43t-136 -43t-47 -123v-228q0 -80 47 -123t136 -43t136 43t47 123v228z" />
    <glyph glyph-name="Ocircumflex" unicode="&#xd4;" horiz-adv-x="666" 
d="M341 915q14 0 21 -3t22 -18l113 -103q8 -8 6 -14t-18 -6h-35q-15 0 -22.5 2.5t-15.5 11.5l-79 71l-80 -71q-9 -10 -16 -12t-21 -2h-33q-16 0 -17.5 6t5.5 14l113 103q15 15 22.5 18t24.5 3h10zM53 469q0 119 71.5 187.5t208.5 68.5t208.5 -68.5t71.5 -187.5v-228
q0 -119 -71.5 -187.5t-208.5 -68.5t-208.5 68.5t-71.5 187.5v228zM516 469q0 80 -47 123t-136 43t-136 -43t-47 -123v-228q0 -80 47 -123t136 -43t136 43t47 123v228z" />
    <glyph glyph-name="Otilde" unicode="&#xd5;" horiz-adv-x="666" 
d="M468 898q16 0 16 -15q0 -56 -19.5 -80.5t-61.5 -24.5q-25 0 -43 10t-33 21.5t-30 21.5t-33 10q-33 0 -33 -48q0 -15 -14 -15h-26q-15 0 -15 15q0 57 20.5 81t59.5 24q26 0 44.5 -10t34 -21.5t30 -21.5t32.5 -10q16 0 24 12.5t8 35.5q0 15 14 15h25zM53 469
q0 119 71.5 187.5t208.5 68.5t208.5 -68.5t71.5 -187.5v-228q0 -119 -71.5 -187.5t-208.5 -68.5t-208.5 68.5t-71.5 187.5v228zM516 469q0 80 -47 123t-136 43t-136 -43t-47 -123v-228q0 -80 47 -123t136 -43t136 43t47 123v228z" />
    <glyph glyph-name="Odieresis" unicode="&#xd6;" horiz-adv-x="666" 
d="M238 885q24 0 33 -9t9 -32v-9q0 -23 -9 -32t-33 -9h-7q-23 0 -32 9t-9 32v9q0 23 9 32t32 9h7zM435 885q23 0 32.5 -9t9.5 -32v-9q0 -23 -9.5 -32t-32.5 -9h-6q-25 0 -34 9t-9 32v9q0 23 9 32t34 9h6zM53 469q0 119 71.5 187.5t208.5 68.5t208.5 -68.5t71.5 -187.5v-228
q0 -119 -71.5 -187.5t-208.5 -68.5t-208.5 68.5t-71.5 187.5v228zM516 469q0 80 -47 123t-136 43t-136 -43t-47 -123v-228q0 -80 47 -123t136 -43t136 43t47 123v228z" />
    <glyph glyph-name="multiply" unicode="&#xd7;" horiz-adv-x="510" 
d="M446 191q10 -11 10 -18.5t-10 -17.5l-21 -21q-11 -11 -18 -11t-18 11l-135 134l-133 -134q-18 -18 -36 0l-21 21q-10 10 -10 17.5t10 18.5l133 134l-133 133q-10 11 -10 18.5t10 17.5l21 21q18 19 36 0l133 -133l135 134q11 10 18 10t18 -10l21 -21q10 -11 10 -18.5
t-10 -17.5l-135 -134l135 -134v0z" />
    <glyph glyph-name="Oslash" unicode="&#xd8;" horiz-adv-x="666" 
d="M617 752q10 0 5 -9l-66 -103q57 -66 57 -171v-228q0 -119 -71.5 -186.5t-208.5 -69.5q-104 0 -169 41l-37 -59q-4 -5 -6.5 -6.5t-11.5 -1.5h-51q-10 0 -5 10l61 96q-61 64 -61 176v228q0 119 71.5 187.5t208.5 68.5q106 0 174 -45l41 64q4 5 7 6.5t10 1.5h52zM457 600
q-23 17 -54 26t-70 9q-89 0 -136 -43t-47 -123v-228q0 -51 25 -82zM215 106q46 -31 118 -31q89 0 136 43t47 123v228q0 46 -21 76z" />
    <glyph glyph-name="Ugrave" unicode="&#xd9;" horiz-adv-x="685" 
d="M253 895q10 12 21.5 10.5t22.5 -8.5l157 -93q9 -5 9.5 -10.5t-7.5 -14.5l-12 -15q-5 -7 -12 -6.5t-18 4.5l-177 82q-12 5 -12 10.5t8 16.5zM165 242q0 -78 43.5 -122.5t133.5 -44.5t133.5 44.5t43.5 122.5v442q0 14 6 20t21 6h44q26 0 26 -26v-441q0 -59 -17 -106.5
t-51.5 -81.5t-86 -52t-119.5 -18t-119 18t-85.5 52t-51.5 81.5t-17 106.5v441q0 14 5.5 20t20.5 6h44q15 0 20.5 -6t5.5 -20v-442z" />
    <glyph glyph-name="Uacute" unicode="&#xda;" horiz-adv-x="685" 
d="M389 900q12 7 23.5 8.5t20.5 -9.5l20 -24q9 -11 8.5 -17t-11.5 -11l-176 -83q-11 -5 -18 -5.5t-12 6.5l-12 15q-8 10 -7.5 15t9.5 10zM165 242q0 -78 43.5 -122.5t133.5 -44.5t133.5 44.5t43.5 122.5v442q0 14 6 20t21 6h44q26 0 26 -26v-441q0 -59 -17 -106.5
t-51.5 -81.5t-86 -52t-119.5 -18t-119 18t-85.5 52t-51.5 81.5t-17 106.5v441q0 14 5.5 20t20.5 6h44q15 0 20.5 -6t5.5 -20v-442z" />
    <glyph glyph-name="Ucircumflex" unicode="&#xdb;" horiz-adv-x="685" 
d="M350 905q14 0 21 -3t22 -18l113 -103q8 -8 6 -14t-18 -6h-35q-15 0 -22.5 2.5t-15.5 11.5l-79 71l-80 -71q-9 -10 -16 -12t-21 -2h-33q-16 0 -17.5 6t5.5 14l113 103q15 15 22.5 18t24.5 3h10zM165 242q0 -78 43.5 -122.5t133.5 -44.5t133.5 44.5t43.5 122.5v442
q0 14 6 20t21 6h44q26 0 26 -26v-441q0 -59 -17 -106.5t-51.5 -81.5t-86 -52t-119.5 -18t-119 18t-85.5 52t-51.5 81.5t-17 106.5v441q0 14 5.5 20t20.5 6h44q15 0 20.5 -6t5.5 -20v-442z" />
    <glyph glyph-name="Udieresis" unicode="&#xdc;" horiz-adv-x="685" 
d="M247 875q24 0 33 -9t9 -32v-9q0 -23 -9 -32t-33 -9h-7q-23 0 -32 9t-9 32v9q0 23 9 32t32 9h7zM444 875q23 0 32.5 -9t9.5 -32v-9q0 -23 -9.5 -32t-32.5 -9h-6q-25 0 -34 9t-9 32v9q0 23 9 32t34 9h6zM165 242q0 -78 43.5 -122.5t133.5 -44.5t133.5 44.5t43.5 122.5v442
q0 14 6 20t21 6h44q26 0 26 -26v-441q0 -59 -17 -106.5t-51.5 -81.5t-86 -52t-119.5 -18t-119 18t-85.5 52t-51.5 81.5t-17 106.5v441q0 14 5.5 20t20.5 6h44q15 0 20.5 -6t5.5 -20v-442z" />
    <glyph glyph-name="Yacute" unicode="&#xdd;" horiz-adv-x="634" 
d="M366 900q12 7 23 8.5t21 -9.5l20 -24q9 -11 8.5 -17t-11.5 -11l-176 -83q-11 -5 -18 -5.5t-12 6.5l-12 15q-8 10 -7.5 15t9.5 10zM605 710q15 0 17.5 -7.5t-3.5 -18.5l-254 -400v-258q0 -14 -5.5 -20t-20.5 -6h-44q-15 0 -20.5 6t-5.5 20v260l-254 398q-6 11 -3 18.5
t17 7.5h54q23 0 32.5 -3t18.5 -20l184 -303l186 303q9 17 18.5 20t32.5 3h50z" />
    <glyph glyph-name="Thorn" unicode="&#xde;" horiz-adv-x="625" 
d="M357 596q55 0 99 -16.5t75.5 -47t48.5 -74.5t17 -99t-17 -98.5t-48.5 -74t-75.5 -46.5t-99 -16h-186v-98q0 -14 -6 -20t-21 -6h-44q-26 0 -26 26v658q0 26 26 26h44q15 0 21 -6t6 -20v-88h186zM348 214q69 0 108.5 39.5t39.5 105.5t-39.5 106.5t-108.5 40.5h-177v-292
h177z" />
    <glyph glyph-name="germandbls" unicode="&#xdf;" horiz-adv-x="551" 
d="M63 528q0 49 13.5 90t40 70t65.5 45.5t90 16.5q108 0 161 -54t53 -149q0 -48 -18.5 -90.5t-64.5 -65.5v-3q50 -17 79.5 -60.5t29.5 -122.5q0 -100 -55 -152.5t-155 -52.5h-67q-15 0 -21 6t-6 20v37q0 15 6 21t21 6h58q59 0 90 31.5t31 94.5q0 56 -30 89t-87 33h-60
q-15 0 -21 6t-6 20v35q0 15 6 20.5t21 5.5h52q27 0 46 9.5t32 25.5t19 36.5t6 41.5q0 60 -30.5 91t-90.5 31q-57 0 -88 -35.5t-31 -95.5v-503q0 -14 -5.5 -20t-20.5 -6h-37q-26 0 -26 26v502v0z" />
    <glyph glyph-name="agrave" unicode="&#xe0;" horiz-adv-x="516" 
d="M166 722q9 11 20.5 9.5t23.5 -7.5l155 -95q9 -5 9 -10.5t-8 -15.5l-11 -15q-5 -6 -12 -6t-18 5l-176 84q-11 5 -11.5 10.5t8.5 16.5zM52 426q26 50 76 77.5t127 27.5q61 0 101 -15.5t63.5 -43t33 -64.5t9.5 -79v-261q0 -26 -7.5 -37t-28.5 -20q-28 -12 -70.5 -19
t-101.5 -7q-66 0 -108.5 10.5t-67 30.5t-34 50t-9.5 68q0 44 12.5 74t39.5 48.5t69 26.5t102 8q37 0 69 -2.5t45 -4.5v38q0 27 -5.5 48.5t-19 37.5t-36.5 24.5t-58 8.5q-45 0 -75.5 -15.5t-48.5 -45.5q-8 -12 -13.5 -14.5t-19.5 2.5l-31 14q-13 5 -16.5 12.5t3.5 21.5z
M372 220q-15 2 -51 5t-73 3q-35 0 -59 -5t-38 -15.5t-20 -26.5t-6 -37q0 -20 5 -35.5t18 -26t36.5 -16.5t61.5 -6q41 0 67.5 3t43.5 9q9 4 12 7.5t3 14.5v126z" />
    <glyph glyph-name="aacute" unicode="&#xe1;" horiz-adv-x="516" 
d="M301 724q12 6 23 7.5t21 -9.5l20 -24q8 -11 8 -16.5t-12 -10.5l-175 -84q-23 -9 -30 1l-12 15q-8 10 -8 15.5t10 10.5zM52 426q26 50 76 77.5t127 27.5q61 0 101 -15.5t63.5 -43t33 -64.5t9.5 -79v-261q0 -26 -7.5 -37t-28.5 -20q-28 -12 -70.5 -19t-101.5 -7
q-66 0 -108.5 10.5t-67 30.5t-34 50t-9.5 68q0 44 12.5 74t39.5 48.5t69 26.5t102 8q37 0 69 -2.5t45 -4.5v38q0 27 -5.5 48.5t-19 37.5t-36.5 24.5t-58 8.5q-45 0 -75.5 -15.5t-48.5 -45.5q-8 -12 -13.5 -14.5t-19.5 2.5l-31 14q-13 5 -16.5 12.5t3.5 21.5zM372 220
q-15 2 -51 5t-73 3q-35 0 -59 -5t-38 -15.5t-20 -26.5t-6 -37q0 -20 5 -35.5t18 -26t36.5 -16.5t61.5 -6q41 0 67.5 3t43.5 9q9 4 12 7.5t3 14.5v126z" />
    <glyph glyph-name="acircumflex" unicode="&#xe2;" horiz-adv-x="516" 
d="M261 725q14 0 21.5 -3t22.5 -18l113 -103q7 -8 5.5 -14t-17.5 -6h-35q-15 0 -23 2.5t-16 11.5l-78 71l-81 -71q-9 -10 -15.5 -12t-21.5 -2h-33q-15 0 -17 6t6 14l113 103q7 7 12 11.5t10 6.5t10.5 2.5t13.5 0.5h10zM52 426q26 50 76 77.5t127 27.5q61 0 101 -15.5
t63.5 -43t33 -64.5t9.5 -79v-261q0 -26 -7.5 -37t-28.5 -20q-28 -12 -70.5 -19t-101.5 -7q-66 0 -108.5 10.5t-67 30.5t-34 50t-9.5 68q0 44 12.5 74t39.5 48.5t69 26.5t102 8q37 0 69 -2.5t45 -4.5v38q0 27 -5.5 48.5t-19 37.5t-36.5 24.5t-58 8.5q-45 0 -75.5 -15.5
t-48.5 -45.5q-8 -12 -13.5 -14.5t-19.5 2.5l-31 14q-13 5 -16.5 12.5t3.5 21.5zM372 220q-15 2 -51 5t-73 3q-35 0 -59 -5t-38 -15.5t-20 -26.5t-6 -37q0 -20 5 -35.5t18 -26t36.5 -16.5t61.5 -6q41 0 67.5 3t43.5 9q9 4 12 7.5t3 14.5v126z" />
    <glyph glyph-name="atilde" unicode="&#xe3;" horiz-adv-x="516" 
d="M389 714q9 0 12 -3.5t3 -11.5q0 -56 -19.5 -80.5t-61.5 -24.5q-25 0 -43 9.5t-33 21.5t-29.5 21.5t-32.5 9.5q-33 0 -33 -47q0 -15 -15 -15h-25q-16 0 -16 15q0 56 21 80.5t60 24.5q26 0 44.5 -10t33.5 -21.5t29.5 -21.5t32.5 -10q32 0 32 48q0 8 3 11.5t12 3.5h25z
M52 426q26 50 76 77.5t127 27.5q61 0 101 -15.5t63.5 -43t33 -64.5t9.5 -79v-261q0 -26 -7.5 -37t-28.5 -20q-28 -12 -70.5 -19t-101.5 -7q-66 0 -108.5 10.5t-67 30.5t-34 50t-9.5 68q0 44 12.5 74t39.5 48.5t69 26.5t102 8q37 0 69 -2.5t45 -4.5v38q0 27 -5.5 48.5
t-19 37.5t-36.5 24.5t-58 8.5q-45 0 -75.5 -15.5t-48.5 -45.5q-8 -12 -13.5 -14.5t-19.5 2.5l-31 14q-13 5 -16.5 12.5t3.5 21.5zM372 220q-15 2 -51 5t-73 3q-35 0 -59 -5t-38 -15.5t-20 -26.5t-6 -37q0 -20 5 -35.5t18 -26t36.5 -16.5t61.5 -6q41 0 67.5 3t43.5 9
q9 4 12 7.5t3 14.5v126z" />
    <glyph glyph-name="adieresis" unicode="&#xe4;" horiz-adv-x="516" 
d="M159 697q24 0 33 -9t9 -32v-9q0 -23 -9 -32t-33 -9h-7q-23 0 -32 9t-9 32v9q0 23 9 32t32 9h7zM356 697q23 0 32 -9t9 -32v-9q0 -23 -9 -32t-32 -9h-7q-24 0 -33 9t-9 32v9q0 23 9 32t33 9h7zM52 426q26 50 76 77.5t127 27.5q61 0 101 -15.5t63.5 -43t33 -64.5t9.5 -79
v-261q0 -26 -7.5 -37t-28.5 -20q-28 -12 -70.5 -19t-101.5 -7q-66 0 -108.5 10.5t-67 30.5t-34 50t-9.5 68q0 44 12.5 74t39.5 48.5t69 26.5t102 8q37 0 69 -2.5t45 -4.5v38q0 27 -5.5 48.5t-19 37.5t-36.5 24.5t-58 8.5q-45 0 -75.5 -15.5t-48.5 -45.5q-8 -12 -13.5 -14.5
t-19.5 2.5l-31 14q-13 5 -16.5 12.5t3.5 21.5zM372 220q-15 2 -51 5t-73 3q-35 0 -59 -5t-38 -15.5t-20 -26.5t-6 -37q0 -20 5 -35.5t18 -26t36.5 -16.5t61.5 -6q41 0 67.5 3t43.5 9q9 4 12 7.5t3 14.5v126z" />
    <glyph glyph-name="aring" unicode="&#xe5;" horiz-adv-x="516" 
d="M152 680q0 46 29 74.5t77 28.5q46 0 74.5 -28.5t28.5 -74.5q0 -45 -28.5 -73t-74.5 -28q-48 0 -77 28t-29 73zM315 680q0 26 -15.5 41.5t-41.5 15.5q-27 0 -43.5 -15.5t-16.5 -41.5t16.5 -41t43.5 -15q26 0 41.5 15t15.5 41zM52 426q26 50 76 77.5t127 27.5
q61 0 101 -15.5t63.5 -43t33 -64.5t9.5 -79v-261q0 -26 -7.5 -37t-28.5 -20q-28 -12 -70.5 -19t-101.5 -7q-66 0 -108.5 10.5t-67 30.5t-34 50t-9.5 68q0 44 12.5 74t39.5 48.5t69 26.5t102 8q37 0 69 -2.5t45 -4.5v38q0 27 -5.5 48.5t-19 37.5t-36.5 24.5t-58 8.5
q-45 0 -75.5 -15.5t-48.5 -45.5q-8 -12 -13.5 -14.5t-19.5 2.5l-31 14q-13 5 -16.5 12.5t3.5 21.5zM372 220q-15 2 -51 5t-73 3q-35 0 -59 -5t-38 -15.5t-20 -26.5t-6 -37q0 -20 5 -35.5t18 -26t36.5 -16.5t61.5 -6q41 0 67.5 3t43.5 9q9 4 12 7.5t3 14.5v126z" />
    <glyph glyph-name="ae" unicode="&#xe6;" horiz-adv-x="793" 
d="M53 426q26 50 71 77.5t116 27.5q62 0 96.5 -20.5t53.5 -52.5q23 35 62 54t96 19q55 0 94.5 -15.5t64.5 -43t36.5 -65.5t11.5 -82v-59q0 -16 -8 -25.5t-28 -9.5h-288v-49q0 -57 27.5 -88t88.5 -31q48 0 74 18t45 50q9 13 16.5 15t21.5 -5l28 -15q25 -14 9 -39
q-13 -23 -30 -41.5t-40 -32t-54 -21t-71 -7.5q-48 0 -83 13.5t-57 36.5q-24 -19 -62 -34.5t-106 -15.5q-61 0 -100 10.5t-62 30.5t-32 49.5t-9 67.5q0 44 11.5 74t36 48.5t64 26.5t95.5 8q30 0 57.5 -2.5t41.5 -4.5v49q0 24 -4 44t-15.5 34.5t-31.5 22.5t-52 8
q-39 0 -64.5 -15.5t-43.5 -45.5q-8 -11 -14 -13.5t-19 2.5l-31 13q-13 5 -17 12.5t4 21.5zM666 330q0 59 -27.5 92t-90.5 33t-90 -33t-27 -92v-30h235v30zM341 220q-16 1 -47.5 4t-60.5 3q-32 0 -52.5 -5.5t-32.5 -16t-17 -26t-5 -36.5q0 -20 4 -35t15.5 -26t31.5 -16.5
t53 -5.5t54.5 5t34.5 11.5t19 13t7 10.5q-2 14 -3 28t-1 30v62z" />
    <glyph glyph-name="ccedilla" unicode="&#xe7;" horiz-adv-x="515" 
d="M465 157q14 -5 18 -12.5t-1 -21.5q-22 -61 -66.5 -95.5t-119.5 -40.5l-20 -53q10 2 19 2q40 0 64 -24t21 -61q-2 -27 -13 -45t-28 -29.5t-39 -16.5t-46 -5q-19 0 -41 4t-36 12q-8 4 -11 9t-3 14v24q0 6 2.5 10t9.5 0q13 -8 27.5 -14t40.5 -6q30 0 45 13t15 34
q0 35 -52 36q-17 0 -30 -3q-21 -2 -12 20l32 78q-100 5 -148 58t-48 143v143q0 93 55 147t169 54q91 0 141.5 -37t69.5 -97q5 -14 1 -21.5t-17 -12.5l-35 -11q-14 -6 -21.5 -2t-12.5 18q-14 42 -44 63t-86 21q-66 0 -98 -31t-32 -87v-151q0 -56 32.5 -87.5t97.5 -31.5
q54 0 85.5 22.5t45.5 64.5q6 14 13 17.5t21 -1.5l35 -10v0z" />
    <glyph glyph-name="egrave" unicode="&#xe8;" horiz-adv-x="534" 
d="M182 722q9 12 20.5 10.5t23.5 -8.5l155 -95q9 -5 9 -10.5t-8 -15.5l-11 -14q-5 -7 -12 -6.5t-18 4.5l-176 84q-11 5 -11.5 10.5t8.5 16.5zM44 317q0 102 57 158t169 56q58 0 100.5 -16t70.5 -43.5t41.5 -65.5t13.5 -82v-58q0 -16 -8 -25.5t-29 -9.5h-326v-48
q0 -57 34 -88.5t100 -31.5q54 0 87 18.5t52 50.5q9 13 17 15t22 -6l27 -14q26 -13 9 -39q-26 -46 -77.5 -74.5t-137.5 -28.5q-59 0 -101 15.5t-69 43t-39.5 65.5t-12.5 84v124zM407 329q0 59 -34 92.5t-103 33.5q-68 0 -102.5 -33.5t-34.5 -92.5v-29h274v29z" />
    <glyph glyph-name="eacute" unicode="&#xe9;" horiz-adv-x="534" 
d="M317 724q12 7 23 8.5t21 -10.5l20 -24q8 -11 8 -16.5t-12 -10.5l-175 -84q-11 -4 -18 -4.5t-12 6.5l-12 14q-8 10 -8 15.5t10 10.5zM44 317q0 102 57 158t169 56q58 0 100.5 -16t70.5 -43.5t41.5 -65.5t13.5 -82v-58q0 -16 -8 -25.5t-29 -9.5h-326v-48q0 -57 34 -88.5
t100 -31.5q54 0 87 18.5t52 50.5q9 13 17 15t22 -6l27 -14q26 -13 9 -39q-26 -46 -77.5 -74.5t-137.5 -28.5q-59 0 -101 15.5t-69 43t-39.5 65.5t-12.5 84v124zM407 329q0 59 -34 92.5t-103 33.5q-68 0 -102.5 -33.5t-34.5 -92.5v-29h274v29z" />
    <glyph glyph-name="ecircumflex" unicode="&#xea;" horiz-adv-x="534" 
d="M277 721q14 0 21 -3t22 -18l110 -101q7 -8 5.5 -13.5t-16.5 -5.5h-35q-14 0 -22 2.5t-16 10.5l-76 70l-79 -70q-9 -9 -15.5 -11t-20.5 -2h-33q-15 0 -16.5 5.5t5.5 13.5l111 101q7 7 12 11t9.5 6.5t10 3t13.5 0.5h10zM44 317q0 102 57 158t169 56q58 0 100.5 -16
t70.5 -43.5t41.5 -65.5t13.5 -82v-58q0 -16 -8 -25.5t-29 -9.5h-326v-48q0 -57 34 -88.5t100 -31.5q54 0 87 18.5t52 50.5q9 13 17 15t22 -6l27 -14q26 -13 9 -39q-26 -46 -77.5 -74.5t-137.5 -28.5q-59 0 -101 15.5t-69 43t-39.5 65.5t-12.5 84v124zM407 329q0 59 -34 92.5
t-103 33.5q-68 0 -102.5 -33.5t-34.5 -92.5v-29h274v29z" />
    <glyph glyph-name="edieresis" unicode="&#xeb;" horiz-adv-x="534" 
d="M175 697q24 0 33 -9t9 -32v-8q0 -24 -9 -33t-33 -9h-7q-23 0 -32 9t-9 33v8q0 23 9 32t32 9h7zM372 697q23 0 32 -9t9 -32v-8q0 -24 -9 -33t-32 -9h-7q-24 0 -33 9t-9 33v8q0 23 9 32t33 9h7zM44 317q0 102 57 158t169 56q58 0 100.5 -16t70.5 -43.5t41.5 -65.5t13.5 -82
v-58q0 -16 -8 -25.5t-29 -9.5h-326v-48q0 -57 34 -88.5t100 -31.5q54 0 87 18.5t52 50.5q9 13 17 15t22 -6l27 -14q26 -13 9 -39q-26 -46 -77.5 -74.5t-137.5 -28.5q-59 0 -101 15.5t-69 43t-39.5 65.5t-12.5 84v124zM407 329q0 59 -34 92.5t-103 33.5q-68 0 -102.5 -33.5
t-34.5 -92.5v-29h274v29z" />
    <glyph glyph-name="igrave" unicode="&#xec;" horiz-adv-x="213" 
d="M34 720q10 11 21 10.5t23 -8.5l127 -93q9 -6 9.5 -11t-7.5 -15l-11 -15q-9 -10 -31 -1l-147 81q-12 5 -12 11t8 17zM128 516q14 0 19 -5t5 -19v-468q0 -14 -5 -19t-19 -5h-42q-14 0 -19 5t-5 19v468q0 14 5 19t19 5h42z" />
    <glyph glyph-name="iacute" unicode="&#xed;" horiz-adv-x="213" 
d="M139 722q11 8 22.5 8.5t21.5 -10.5l19 -24q9 -11 9 -17t-12 -11l-148 -81q-11 -5 -18 -5.5t-12 6.5l-11 14q-8 10 -7.5 15.5t9.5 10.5zM128 516q13 0 18 -5t5 -19v-468q0 -14 -5 -19t-18 -5h-42q-14 0 -19 5t-5 19v468q0 14 5 19t19 5h42z" />
    <glyph glyph-name="icircumflex" unicode="&#xee;" horiz-adv-x="213" 
d="M242 603q7 -8 5.5 -13.5t-17.5 -5.5h-31q-15 0 -23.5 1.5t-14.5 11.5l-55 67l-57 -67q-7 -11 -14.5 -12t-21.5 -1h-30q-15 0 -16.5 5.5t4.5 13.5l87 98q13 16 21 18.5t24 2.5h10q14 0 21.5 -2.5t20.5 -18.5zM128 516q13 0 18 -5t5 -19v-468q0 -14 -5 -19t-18 -5h-42
q-14 0 -19 5t-5 19v468q0 14 5 19t19 5h42z" />
    <glyph glyph-name="idieresis" unicode="&#xef;" horiz-adv-x="213" 
d="M30 705q24 0 33 -9.5t9 -32.5v-8q0 -23 -9 -32t-33 -9h-7q-23 0 -32 9t-9 32v8q0 23 9 32.5t32 9.5h7zM190 705q24 0 33 -9.5t9 -32.5v-8q0 -23 -9 -32t-33 -9h-6q-24 0 -33 9t-9 32v8q0 23 9 32.5t33 9.5h6zM128 516q13 0 18 -5t5 -19v-468q0 -14 -5 -19t-18 -5h-42
q-14 0 -19 5t-5 19v468q0 14 5 19t19 5h42z" />
    <glyph glyph-name="eth" unicode="&#xf0;" horiz-adv-x="552" 
d="M405 747q5 6 8.5 6t9.5 -5l25 -18q7 -5 6.5 -9t-5.5 -10l-41 -43q47 -43 67 -109.5t20 -160.5v-215q0 -93 -56.5 -145.5t-168.5 -52.5t-168.5 52.5t-56.5 145.5v123q0 93 55 146t152 53q63 0 101 -18t57 -50q-2 55 -16 96t-44 69l-55 -59q-5 -6 -8.5 -6t-10.5 5l-22 15
q-10 9 -1 19l50 54q-57 30 -155 30q-15 0 -20 5t-6 18v35q0 14 4.5 19t18.5 5q137 0 216 -43zM405 307q0 57 -34 87t-101 30t-101 -30.5t-34 -87.5v-122q0 -57 34 -87.5t101 -30.5t101 30.5t34 87.5v123z" />
    <glyph glyph-name="ntilde" unicode="&#xf1;" horiz-adv-x="551" 
d="M411 714q9 0 12 -3.5t3 -11.5q0 -55 -19.5 -80t-61.5 -25q-25 0 -43 10t-33 21.5t-30 21.5t-33 10q-32 0 -32 -48q0 -15 -15 -15h-26q-15 0 -15 15q0 57 20.5 81t59.5 24q27 0 45.5 -9.5t33.5 -21.5t29.5 -21.5t32.5 -9.5q32 0 32 47q0 8 3 11.5t12 3.5h25zM99 497
q29 12 75 23t116 11q105 0 154 -52.5t49 -145.5v-309q0 -14 -5 -19t-19 -5h-42q-14 0 -19 5t-5 19v306q0 60 -30 89.5t-95 29.5q-37 0 -66 -5.5t-50 -12.5q-8 -3 -10 -7.5t-2 -10.5v-389q0 -14 -5 -19t-19 -5h-42q-13 0 -18 5t-5 19v417q0 23 7.5 34.5t30.5 21.5z" />
    <glyph glyph-name="ograve" unicode="&#xf2;" horiz-adv-x="541" 
d="M182 722q10 11 21 9.5t23 -7.5l155 -95q9 -5 9.5 -10.5t-7.5 -15.5l-12 -15q-5 -6 -12 -6t-18 5l-176 84q-11 5 -11.5 10.5t8.5 16.5zM46 339q0 90 59 141t165 51q109 0 167 -51t58 -141v-163q0 -89 -58 -140t-167 -51q-106 0 -165 51t-59 140v163zM406 340q0 52 -36 81
t-100 29q-63 0 -99 -29t-36 -81v-164q0 -52 36 -81t99 -29q64 0 100 29t36 81v164z" />
    <glyph glyph-name="oacute" unicode="&#xf3;" horiz-adv-x="541" 
d="M317 724q12 6 23 7.5t21 -9.5l20 -24q9 -11 8.5 -16.5t-12.5 -10.5l-175 -84q-11 -5 -18 -5t-12 6l-12 15q-8 10 -7.5 15.5t9.5 10.5zM46 339q0 90 59 141t165 51q109 0 167 -51t58 -141v-163q0 -89 -58 -140t-167 -51q-106 0 -165 51t-59 140v163zM406 340q0 52 -36 81
t-100 29q-63 0 -99 -29t-36 -81v-164q0 -52 36 -81t99 -29q64 0 100 29t36 81v164z" />
    <glyph glyph-name="ocircumflex" unicode="&#xf4;" horiz-adv-x="541" 
d="M277 720q14 0 21 -2.5t22 -17.5l110 -101q7 -8 5.5 -13.5t-16.5 -5.5h-35q-14 0 -22 2t-16 11l-76 69l-79 -69q-9 -9 -15.5 -11t-20.5 -2h-32q-15 0 -17 5.5t5 13.5l111 101q7 7 12 11t9.5 6t10 2.5t13.5 0.5h10zM46 339q0 90 59 141t165 51q109 0 167 -51t58 -141v-163
q0 -89 -58 -140t-167 -51q-106 0 -165 51t-59 140v163zM406 340q0 52 -36 81t-100 29q-63 0 -99 -29t-36 -81v-164q0 -52 36 -81t99 -29q64 0 100 29t36 81v164z" />
    <glyph glyph-name="otilde" unicode="&#xf5;" horiz-adv-x="541" 
d="M405 714q9 0 12 -3.5t3 -11.5q0 -56 -19.5 -80.5t-61.5 -24.5q-25 0 -43 9.5t-33 21.5t-29.5 21.5t-32.5 9.5q-33 0 -33 -47q0 -15 -14 -15h-26q-15 0 -15 15q0 56 20.5 80.5t59.5 24.5q26 0 44.5 -10t34 -21.5t29.5 -21.5t32 -10q33 0 33 48q0 8 2.5 11.5t11.5 3.5h25z
M46 339q0 90 59 141t165 51q109 0 167 -51t58 -141v-163q0 -89 -58 -140t-167 -51q-106 0 -165 51t-59 140v163zM406 340q0 52 -36 81t-100 29q-63 0 -99 -29t-36 -81v-164q0 -52 36 -81t99 -29q64 0 100 29t36 81v164z" />
    <glyph glyph-name="odieresis" unicode="&#xf6;" horiz-adv-x="541" 
d="M175 697q24 0 33 -9t9 -32v-9q0 -23 -9 -32t-33 -9h-7q-23 0 -32 9t-9 32v9q0 23 9 32t32 9h7zM372 697q23 0 32 -9t9 -32v-9q0 -23 -9 -32t-32 -9h-7q-24 0 -33 9t-9 32v9q0 23 9 32t33 9h7zM46 339q0 90 59 141t165 51q109 0 167 -51t58 -141v-163q0 -89 -58 -140
t-167 -51q-106 0 -165 51t-59 140v163zM406 340q0 52 -36 81t-100 29q-63 0 -99 -29t-36 -81v-164q0 -52 36 -81t99 -29q64 0 100 29t36 81v164z" />
    <glyph glyph-name="divide" unicode="&#xf7;" horiz-adv-x="566" 
d="M286 570q29 0 40 -10.5t11 -39.5v-8q0 -29 -11 -40t-40 -11h-6q-29 0 -40 11t-11 40v8q0 29 11 39.5t40 10.5h6zM493 368q14 0 20 -5.5t6 -20.5v-34q0 -15 -6 -20.5t-20 -5.5h-419q-15 0 -20.5 5.5t-5.5 20.5v34q0 15 5.5 20.5t20.5 5.5h419zM286 190q29 0 40 -11t11 -40
v-8q0 -29 -11 -39.5t-40 -10.5h-6q-29 0 -40 10.5t-11 39.5v8q0 29 11 40t40 11h6z" />
    <glyph glyph-name="oslash" unicode="&#xf8;" horiz-adv-x="541" 
d="M476 552q8 0 4 -9l-41 -65q56 -51 56 -139v-163q0 -89 -58 -140t-167 -51q-37 0 -68.5 7t-57.5 20l-25 -39q-4 -5 -6.5 -6.5t-11.5 -1.5h-35q-11 0 -4 9l41 65q-57 49 -57 137v163q0 90 59 141t165 51q77 0 128 -27l26 40q4 5 6.5 6.5t9.5 1.5h36zM352 431q-35 19 -82 19
q-63 0 -99 -29t-36 -81v-164q0 -31 22 -53zM189 85q35 -19 81 -19q64 0 100 29t36 81v164q0 32 -21 53z" />
    <glyph glyph-name="ugrave" unicode="&#xf9;" horiz-adv-x="551" 
d="M186 722q10 11 21 9.5t23 -7.5l155 -95q9 -5 9.5 -10.5t-7.5 -15.5l-12 -15q-5 -6 -12 -6t-18 5l-176 84q-11 5 -11.5 10.5t8.5 16.5zM466 516q14 0 19 -5t5 -19v-417q0 -23 -7.5 -34.5t-30.5 -21.5q-30 -11 -75.5 -22.5t-115.5 -11.5q-105 0 -154 52.5t-49 145.5v309
q0 14 5 19t19 5h42q13 0 18 -5t5 -19v-306q0 -60 30.5 -89.5t95.5 -29.5q37 0 64 5t49 12q10 5 12.5 10t2.5 13v385q0 14 5 19t19 5h41z" />
    <glyph glyph-name="uacute" unicode="&#xfa;" horiz-adv-x="551" 
d="M321 724q12 6 23 7.5t21 -9.5l20 -24q9 -11 8.5 -16.5t-12.5 -10.5l-175 -84q-11 -5 -18 -5t-12 6l-12 15q-8 10 -7.5 15.5t9.5 10.5zM466 516q14 0 19 -5t5 -19v-417q0 -23 -7.5 -34.5t-30.5 -21.5q-30 -11 -75.5 -22.5t-115.5 -11.5q-105 0 -154 52.5t-49 145.5v309
q0 14 5 19t19 5h42q13 0 18 -5t5 -19v-306q0 -60 30.5 -89.5t95.5 -29.5q37 0 64 5t49 12q10 5 12.5 10t2.5 13v385q0 14 5 19t19 5h41z" />
    <glyph glyph-name="ucircumflex" unicode="&#xfb;" horiz-adv-x="551" 
d="M281 725q14 0 21.5 -3t22.5 -18l113 -103q7 -8 5.5 -14t-17.5 -6h-35q-15 0 -23 2.5t-16 11.5l-78 71l-80 -71q-10 -10 -16.5 -12t-20.5 -2h-34q-15 0 -17 6t6 14l113 103q7 7 12.5 11.5t10 6.5t10 2.5t13.5 0.5h10zM466 516q14 0 19 -5t5 -19v-417q0 -23 -7.5 -34.5
t-30.5 -21.5q-30 -11 -75.5 -22.5t-115.5 -11.5q-105 0 -154 52.5t-49 145.5v309q0 14 5 19t19 5h42q13 0 18 -5t5 -19v-306q0 -60 30.5 -89.5t95.5 -29.5q37 0 64 5t49 12q10 5 12.5 10t2.5 13v385q0 14 5 19t19 5h41z" />
    <glyph glyph-name="udieresis" unicode="&#xfc;" horiz-adv-x="551" 
d="M179 697q24 0 33 -9t9 -32v-9q0 -23 -9 -32t-33 -9h-7q-23 0 -32 9t-9 32v9q0 23 9 32t32 9h7zM376 697q23 0 32 -9t9 -32v-9q0 -23 -9 -32t-32 -9h-7q-24 0 -33 9t-9 32v9q0 23 9 32t33 9h7zM466 516q14 0 19 -5t5 -19v-417q0 -23 -7.5 -34.5t-30.5 -21.5
q-30 -11 -75.5 -22.5t-115.5 -11.5q-105 0 -154 52.5t-49 145.5v309q0 14 5 19t19 5h42q13 0 18 -5t5 -19v-306q0 -60 30.5 -89.5t95.5 -29.5q37 0 64 5t49 12q10 5 12.5 10t2.5 13v385q0 14 5 19t19 5h41z" />
    <glyph glyph-name="yacute" unicode="&#xfd;" horiz-adv-x="553" 
d="M321 724q12 6 23 7.5t21 -9.5l20 -24q9 -11 8.5 -16.5t-12.5 -10.5l-175 -84q-11 -5 -18 -5t-12 6l-12 15q-8 10 -7.5 15.5t9.5 10.5zM466 516q14 0 19 -5t5 -19v-517q0 -49 -12 -88.5t-38 -68t-67 -44t-99 -15.5q-80 0 -128.5 27.5t-74.5 74.5q-16 25 10 38l29 16
q14 8 22 5.5t17 -14.5q18 -31 46 -49t78 -18q66 0 97 34.5t31 97.5v54q-25 -7 -58.5 -14t-81.5 -7q-106 0 -154.5 52t-48.5 146v290q0 14 5 19t19 5h42q13 0 18 -5t5 -19v-287q0 -60 30.5 -89.5t95.5 -29.5q42 0 74 7t54 14v385q0 14 5 19t19 5h41z" />
    <glyph glyph-name="thorn" unicode="&#xfe;" horiz-adv-x="541" 
d="M63 716q0 13 5 18t19 5h42q23 0 23 -23v-210q20 6 54 13.5t80 7.5q108 0 158.5 -52t50.5 -149v-137q0 -99 -52 -151.5t-161 -52.5q-42 0 -76 10t-54 17v-208q0 -14 -5 -19t-18 -5h-42q-14 0 -19 5t-5 19v912zM406 324q0 122 -132 122q-42 0 -73 -9t-49 -15v-330
q18 -6 50.5 -15.5t73.5 -9.5q67 0 98.5 31t31.5 93v133z" />
    <glyph glyph-name="ydieresis" unicode="&#xff;" horiz-adv-x="553" 
d="M179 697q24 0 33 -9t9 -32v-9q0 -23 -9 -32t-33 -9h-7q-23 0 -32 9t-9 32v9q0 23 9 32t32 9h7zM376 697q23 0 32 -9t9 -32v-9q0 -23 -9 -32t-32 -9h-7q-24 0 -33 9t-9 32v9q0 23 9 32t33 9h7zM466 516q14 0 19 -5t5 -19v-517q0 -49 -12 -88.5t-38 -68t-67 -44t-99 -15.5
q-80 0 -128.5 27.5t-74.5 74.5q-16 25 10 38l29 16q14 8 22 5.5t17 -14.5q18 -31 46 -49t78 -18q66 0 97 34.5t31 97.5v54q-25 -7 -58.5 -14t-81.5 -7q-106 0 -154.5 52t-48.5 146v290q0 14 5 19t19 5h42q13 0 18 -5t5 -19v-287q0 -60 30.5 -89.5t95.5 -29.5q42 0 74 7
t54 14v385q0 14 5 19t19 5h41z" />
    <glyph glyph-name="dotlessi" unicode="&#x131;" horiz-adv-x="214" 
d="M128 516q14 0 19 -5t5 -19v-468q0 -14 -5 -19t-19 -5h-42q-14 0 -19 5t-5 19v468q0 14 5 19t19 5h42v0z" />
    <glyph glyph-name="OE" unicode="&#x152;" horiz-adv-x="851" 
d="M789 90q15 0 21 -6t6 -20v-38q0 -14 -6 -20t-21 -6h-344q-50 -15 -112 -15q-137 0 -208.5 68.5t-71.5 187.5v228q0 119 71.5 187.5t208.5 68.5q64 0 112 -15h333q26 0 26 -26v-38q0 -26 -26 -26h-263v-216h216q15 0 20.5 -5.5t5.5 -20.5v-37q0 -15 -5.5 -21t-20.5 -6
h-216v-224h274zM150 241q0 -80 47 -123t136 -43q27 0 49.5 4t35.5 9v534q-14 5 -36.5 9t-48.5 4q-89 0 -136 -43t-47 -123v-228z" />
    <glyph glyph-name="oe" unicode="&#x153;" horiz-adv-x="823" 
d="M417 456q23 36 62 55.5t98 19.5q55 0 94.5 -15.5t64.5 -43t37 -65.5t12 -82v-59q0 -16 -8.5 -25.5t-28.5 -9.5h-288v-49q0 -57 27.5 -88t88.5 -31q48 0 74 18t45 50q9 13 17 15t22 -5l27 -15q25 -14 9 -39q-13 -23 -30 -41.5t-40 -32t-54 -21t-71 -7.5q-60 0 -98.5 19
t-60.5 54q-23 -35 -64.5 -54t-98.5 -19q-99 0 -152.5 50.5t-53.5 140.5v164q0 89 53.5 140t152.5 51q57 0 99 -19.5t65 -55.5zM695 330q0 59 -27.5 92t-90.5 33t-90 -33t-27 -92v-30h235v30zM370 340q0 53 -30.5 81.5t-86.5 28.5q-55 0 -85.5 -28.5t-30.5 -81.5v-164
q0 -52 30.5 -81t85.5 -29q56 0 86.5 29t30.5 81v164z" />
    <glyph glyph-name="Scaron" unicode="&#x160;" horiz-adv-x="629" 
d="M467 914q15 0 17 -6t-6 -14l-112 -103q-15 -16 -22.5 -18.5t-21.5 -2.5h-10q-8 0 -13.5 0.5t-10.5 2.5t-10 6t-12 12l-113 103q-8 7 -6 13.5t17 6.5h33q15 0 21.5 -2t15.5 -12l81 -71l78 71q8 9 16 11.5t23 2.5h35zM48 513q0 47 17 86t51 67t83.5 43.5t114.5 15.5
q52 0 92.5 -9.5t72 -28.5t55.5 -48t42 -67q7 -14 3.5 -21.5t-17.5 -13.5l-42 -19q-14 -6 -20.5 -3.5t-13.5 16.5q-13 25 -28.5 43.5t-36 31.5t-47 19.5t-60.5 6.5q-82 0 -124.5 -28.5t-42.5 -84.5q0 -33 16 -54t42.5 -33t61 -18t72.5 -10q45 -5 89.5 -14.5t80.5 -31
t58.5 -58.5t22.5 -98q0 -99 -71 -158t-206 -59q-56 0 -99.5 11t-76.5 32.5t-57 53.5t-40 74q-5 14 -1 21.5t18 12.5l41 15q14 5 21 1.5t13 -17.5q24 -56 68.5 -84.5t112.5 -28.5q89 0 134.5 30t45.5 94q0 32 -14.5 52t-39 32t-56.5 18t-67 10q-46 5 -93.5 13.5t-86.5 29
t-63.5 58t-24.5 100.5z" />
    <glyph glyph-name="scaron" unicode="&#x161;" horiz-adv-x="500" 
d="M386 705q14 0 15.5 -5.5t-5.5 -12.5l-102 -93q-14 -14 -20 -16.5t-19 -2.5h-9q-15 0 -22 2.5t-20 16.5l-102 93q-7 7 -5.5 12.5t14.5 5.5h31q14 0 19.5 -2t14.5 -10l72 -65l71 65q8 8 14.5 10t20.5 2h32zM42 376q0 70 50.5 112.5t150.5 42.5q87 0 136.5 -29.5t72.5 -78.5
q7 -14 3.5 -22t-15.5 -13l-34 -14q-14 -6 -19.5 -3.5t-13.5 14.5q-14 29 -42 47t-86 18q-114 0 -114 -72q0 -24 9.5 -38.5t27.5 -22.5t43 -11.5t56 -6.5q43 -4 79 -12t62.5 -25t41.5 -45t15 -72q0 -71 -52 -115.5t-157 -44.5q-173 0 -219 123q-10 24 15 32l34 12
q12 4 19 1.5t13 -16.5q15 -39 48.5 -55.5t86.5 -16.5q125 0 125 76q0 22 -9 36.5t-26 22.5t-42 12.5t-56 7.5q-38 4 -74 10.5t-65 23t-46.5 45.5t-17.5 77z" />
    <glyph glyph-name="Ydieresis" unicode="&#x178;" horiz-adv-x="634" 
d="M224 875q24 0 33 -9t9 -32v-9q0 -23 -9 -32t-33 -9h-7q-23 0 -32 9t-9 32v9q0 23 9 32t32 9h7zM421 875q23 0 32 -9t9 -32v-9q0 -23 -9 -32t-32 -9h-6q-25 0 -34 9t-9 32v9q0 23 9 32t34 9h6zM605 710q15 0 17.5 -7.5t-3.5 -18.5l-254 -400v-258q0 -14 -5.5 -20t-20.5 -6
h-44q-15 0 -20.5 6t-5.5 20v260l-254 398q-6 11 -3 18.5t17 7.5h54q23 0 32.5 -3t18.5 -20l184 -303l186 303q9 17 18.5 20t32.5 3h50z" />
    <glyph glyph-name="Zcaron" unicode="&#x17d;" 
d="M443 904q15 0 17 -6t-6 -14l-112 -103q-16 -15 -23 -18t-21 -3h-10q-8 0 -13.5 0.5t-10.5 2.5t-10 6t-12 12l-113 103q-8 8 -6 14t17 6h33q15 0 21.5 -2t15.5 -12l81 -71l78 71q8 9 16 11.5t23 2.5h35zM510 710q26 0 26 -26v-37q0 -18 -9 -28l-373 -529h364
q15 0 20.5 -5.5t5.5 -20.5v-38q0 -14 -5.5 -20t-20.5 -6h-458q-15 0 -21 6t-6 20v37q0 16 10 29l372 528h-351q-26 0 -26 26v38q0 26 26 26h446z" />
    <glyph glyph-name="zcaron" unicode="&#x17e;" horiz-adv-x="463" 
d="M366 704q14 0 15.5 -5.5t-5.5 -12.5l-101 -93q-14 -14 -20.5 -16.5t-18.5 -2.5h-9q-16 0 -22.5 2.5t-19.5 16.5l-102 93q-7 8 -5.5 13t15.5 5h30q14 0 19.5 -2t14.5 -10l72 -65l71 65q8 8 14.5 10t19.5 2h32zM409 81q13 0 18 -5t5 -19v-33q0 -14 -5 -19t-18 -5h-355
q-14 0 -19 5t-5 19v33q0 9 2 13.5t7 11.5l273 353h-254q-13 0 -18 5t-5 19v33q0 14 5 19t18 5h346q14 0 19 -5t5 -19v-33q0 -9 -2 -14t-7 -13l-275 -351h265z" />
    <glyph glyph-name="florin" unicode="&#x192;" horiz-adv-x="452" 
d="M192 530q5 48 19.5 87t40.5 66.5t66 42t97 14.5q14 0 19 -5t5 -19v-35q0 -14 -5 -19t-19 -5q-35 0 -59 -9t-39.5 -26.5t-23.5 -41.5t-11 -54l-14 -127h122q14 0 19 -5t5 -19v-35q0 -14 -5 -19t-19 -5h-130l-35 -325q-5 -48 -19 -87t-40.5 -66.5t-66.5 -42.5t-96 -15
q-14 0 -19.5 5t-5.5 19v35q0 14 5.5 19t19.5 5q35 0 59 9.5t39 26.5t23.5 41t11.5 54l34 322h-115q-14 0 -19 5t-5 19v35q0 14 5 19t19 5h124l13 131v0z" />
    <glyph glyph-name="uni0237" unicode="&#x237;" horiz-adv-x="215" 
d="M128 516q14 0 19 -5t5 -19v-500q0 -106 -50.5 -164t-166.5 -58q-14 0 -19 5t-5 19v35q0 14 5 19t19 5q37 0 61.5 9.5t39.5 28t21 44.5t6 59v498q0 14 5 19t19 5h41v0z" />
    <glyph glyph-name="circumflex" unicode="&#x2c6;" horiz-adv-x="385" 
d="M197 729q14 0 21.5 -3t22.5 -18l113 -103q7 -8 5 -14t-17 -6h-35q-15 0 -23 2.5t-16 11.5l-78 71l-81 -71q-9 -10 -15.5 -12t-21.5 -2h-33q-15 0 -17 6t6 14l113 103q7 7 12 11.5t10 6.5t10.5 2.5t13.5 0.5h10v0z" />
    <glyph glyph-name="tilde" unicode="&#x2dc;" horiz-adv-x="305" 
d="M291 718q9 0 12 -3.5t3 -11.5q0 -56 -19.5 -80.5t-61.5 -24.5q-25 0 -43 9.5t-33 21.5t-29.5 21.5t-32.5 9.5q-33 0 -33 -47q0 -15 -14 -15h-26q-15 0 -15 15q0 56 20.5 80.5t59.5 24.5q26 0 44.5 -10t34 -21.5t29.5 -21.5t32 -10q33 0 33 48q0 8 2.5 11.5t11.5 3.5h25v0
z" />
    <glyph glyph-name="endash" unicode="&#x2013;" horiz-adv-x="572" 
d="M486 310q14 0 20 -5.5t6 -20.5v-34q0 -15 -6 -20.5t-20 -5.5h-400q-15 0 -20.5 5.5t-5.5 20.5v34q0 15 5.5 20.5t20.5 5.5h400v0z" />
    <glyph glyph-name="emdash" unicode="&#x2014;" horiz-adv-x="770" 
d="M685 310q15 0 20.5 -5.5t5.5 -20.5v-34q0 -15 -5.5 -21t-20.5 -6h-600q-14 0 -20 6t-6 21v34q0 15 6 20.5t20 5.5h600v0z" />
    <glyph glyph-name="quoteleft" unicode="&#x2018;" horiz-adv-x="210" 
d="M105 686q5 13 10.5 18.5t19.5 5.5h16q12 0 15.5 -3.5t1.5 -14.5l-30 -175q-2 -17 -9 -23t-24 -6h-34q-36 0 -25 29l59 169v0z" />
    <glyph glyph-name="quoteright" unicode="&#x2019;" horiz-adv-x="205" 
d="M114 512q-5 -13 -10.5 -18.5t-19.5 -5.5h-16q-12 0 -15.5 4t-1.5 15l30 174q2 17 9 23t24 6h34q35 0 25 -29l-59 -169v0z" />
    <glyph glyph-name="quotesinglbase" unicode="&#x201a;" horiz-adv-x="187" 
d="M122 -111q-2 -14 -7 -19t-18 -5h-21q-14 0 -19 5t-5 19v197q0 14 5 19t19 5h37q14 0 20 -5t4 -19l-15 -197v0z" />
    <glyph glyph-name="quotedblleft" unicode="&#x201c;" horiz-adv-x="346" 
d="M105 686q5 13 10.5 18.5t19.5 5.5h16q12 0 15.5 -3.5t1.5 -14.5l-30 -175q-2 -17 -9 -23t-24 -6h-34q-36 0 -25 29zM240 686q5 13 10.5 18.5t19.5 5.5h17q11 0 14.5 -3.5t1.5 -14.5l-30 -175q-2 -17 -8.5 -23t-23.5 -6h-35q-35 0 -24 29z" />
    <glyph glyph-name="quotedblright" unicode="&#x201d;" horiz-adv-x="340" 
d="M114 512q-5 -13 -10.5 -18.5t-19.5 -5.5h-16q-12 0 -15.5 4t-1.5 15l30 174q2 17 9 23t24 6h34q35 0 25 -29zM249 512q-4 -13 -9.5 -18.5t-19.5 -5.5h-17q-11 0 -14.5 4t-1.5 15l30 174q2 17 8.5 23t23.5 6h35q34 0 24 -29z" />
    <glyph glyph-name="quotedblbase" unicode="&#x201e;" horiz-adv-x="334" 
d="M89 -98q-5 -13 -10.5 -18.5t-19.5 -5.5h-16q-12 0 -15.5 4t-1.5 15l30 174q2 17 9 23t24 6h34q36 0 25 -29zM224 -98q-5 -13 -10 -18.5t-19 -5.5h-17q-11 0 -14.5 4t-2.5 15l31 174q2 17 8.5 23t23.5 6h34q36 0 25 -29z" />
    <glyph glyph-name="dagger" unicode="&#x2020;" horiz-adv-x="528" 
d="M473 489q14 0 20 -5.5t6 -20.5v-37q0 -15 -6 -21t-20 -6h-163v-473q0 -26 -26 -26h-38q-15 0 -21 6t-6 20v473h-163q-15 0 -20.5 6t-5.5 21v37q0 15 5.5 20.5t20.5 5.5h163v195q0 14 6 20t21 6h38q26 0 26 -26v-195h163v0z" />
    <glyph glyph-name="daggerdbl" unicode="&#x2021;" horiz-adv-x="569" 
d="M303 710q15 0 21 -6t6 -20v-195h162q15 0 21 -5.5t6 -20.5v-37q0 -15 -6 -21t-21 -6h-162v-189h163q15 0 20.5 -6t5.5 -20v-38q0 -15 -5.5 -20.5t-20.5 -5.5h-163v-194q0 -14 -6 -20t-21 -6h-38q-26 0 -26 26v194h-163q-14 0 -20 5.5t-6 20.5v38q0 26 26 26h163v189h-163
q-15 0 -20.5 6t-5.5 21v37q0 15 5.5 20.5t20.5 5.5h163v195q0 26 26 26h38v0z" />
    <glyph glyph-name="bullet" unicode="&#x2022;" horiz-adv-x="332" 
d="M166 172q-39 0 -65 26.5t-26 65.5q0 38 26 64t65 26t64.5 -26t25.5 -64q0 -39 -25.5 -65.5t-64.5 -26.5z" />
    <glyph glyph-name="ellipsis" unicode="&#x2026;" horiz-adv-x="651" 
d="M105 103q29 0 40 -11t11 -40v-8q0 -29 -11 -39.5t-40 -10.5h-6q-29 0 -40 10.5t-11 39.5v8q0 29 11 40t40 11h6zM329 103q29 0 39.5 -11t10.5 -40v-8q0 -29 -10.5 -39.5t-39.5 -10.5h-7q-29 0 -40 10.5t-11 39.5v8q0 29 11 40t40 11h7zM552 103q29 0 40 -11t11 -40v-8
q0 -29 -11 -39.5t-40 -10.5h-7q-29 0 -39.5 10.5t-10.5 39.5v8q0 29 10.5 40t39.5 11h7z" />
    <glyph glyph-name="perthousand" unicode="&#x2030;" horiz-adv-x="1185" 
d="M34 578q0 69 41.5 108.5t120.5 39.5t120.5 -39.5t41.5 -108.5v-73q0 -68 -41.5 -107t-120.5 -39t-120.5 39t-41.5 107v73zM687 710q14 0 17 -7.5t-5 -17.5l-486 -662q-11 -16 -20 -19.5t-32 -3.5h-30q-15 0 -18.5 8t4.5 19l487 661q11 15 19 18.5t29 3.5h35zM282 574
q0 38 -22 59t-64 21q-43 0 -65 -21t-22 -59v-64q0 -38 22 -59t65 -21q42 0 64 21t22 59v64zM457 203q0 69 41.5 108.5t120.5 39.5q80 0 121 -39.5t41 -108.5v-72q0 -69 -41 -108t-121 -39q-79 0 -120.5 39t-41.5 108v72zM829 203q0 69 41.5 108.5t120.5 39.5q80 0 121 -39.5
t41 -108.5v-72q0 -69 -41 -108t-121 -39q-79 0 -120.5 39t-41.5 108v72zM706 199q0 38 -22 59t-65 21q-42 0 -64 -21t-22 -59v-63q0 -38 22 -59t64 -21q43 0 65 21t22 59v63zM1078 199q0 38 -22 59t-65 21q-42 0 -64 -21t-22 -59v-63q0 -38 22 -59t64 -21q43 0 65 21t22 59
v63z" />
    <glyph glyph-name="guilsinglleft" unicode="&#x2039;" horiz-adv-x="344" 
d="M289 113q9 -8 9 -14.5t-9 -15.5l-28 -28q-8 -8 -15 -8t-15 8l-193 193q-8 8 -8 14.5t8 14.5l196 197q16 17 30 0l27 -27q8 -8 8 -14.5t-8 -14.5l-152 -154l150 -151v0z" />
    <glyph glyph-name="guilsinglright" unicode="&#x203a;" horiz-adv-x="344" 
d="M53 418q-9 8 -9 14.5t9 14.5l26 27q15 16 30 0l196 -197q8 -8 8 -14.5t-8 -14.5l-193 -193q-8 -8 -15 -8t-15 8l-28 28q-15 16 0 30l151 151l-152 154v0z" />
    <glyph glyph-name="Euro" unicode="&#x20ac;" horiz-adv-x="731" 
d="M145 484q0 55 19 100t55 76t88 48t118 17q100 0 158 -30t89 -85q19 -30 -11 -46l-30 -15q-17 -8 -26 -5.5t-19 16.5q-6 11 -17 24t-30 24.5t-47 19t-67 7.5q-85 0 -133.5 -39t-48.5 -109v-27h284q25 0 18 -23l-8 -25q-4 -12 -11 -17t-21 -5h-265v-80h242q26 0 18 -23
l-7 -25q-5 -12 -11.5 -17t-20.5 -5h-218v-20q3 -71 50.5 -108t131.5 -37q40 0 68.5 8t48 20t30.5 25.5t16 25.5q11 14 19.5 17t25.5 -6l30 -15q31 -16 12 -46q-31 -56 -89.5 -87.5t-160.5 -31.5q-131 0 -203 59.5t-76 175.5v20h-97q-14 0 -18 5t-1 18l8 26q4 13 10.5 17
t20.5 4h77v80h-57q-25 0 -18 23l8 26q4 13 10.5 17t20.5 4h35v24v0z" />
    <glyph glyph-name="trademark" unicode="&#x2122;" horiz-adv-x="625" 
d="M257 695q11 0 14 -3t3 -14v-16q0 -11 -3 -14t-14 -3h-73v-185q0 -11 -4 -14t-15 -3h-15q-10 0 -14 3t-4 14v185h-75q-12 0 -14 3t-2 14v16q0 11 2 14t14 3h200zM538 695q11 0 15 -3t4 -14v-218q0 -11 -3 -14t-14 -3h-17q-11 0 -14 3t-3 14v90q0 22 3 52q-5 -8 -8.5 -15
t-8.5 -13l-41 -60q-5 -7 -8.5 -10t-11.5 -3h-8q-8 0 -11 2t-8 8l-41 59q-5 7 -9 13t-8 13q1 -13 1 -25v-21v-90q0 -11 -2.5 -14t-13.5 -3h-17q-11 0 -14 3t-3 14v218q0 11 4 14t15 3h9q9 0 12.5 -2t8.5 -10l81 -123l80 122q4 6 8.5 9.5t12.5 3.5h10z" />
    </font>
</defs>
</svg>
