<?xml version="1.0" standalone="no"?>
<!DOCTYPE svg PUBLIC "-//W3C//DTD SVG 1.1//EN" "http://www.w3.org/Graphics/SVG/1.1/DTD/svg11.dtd" >
<svg xmlns="http://www.w3.org/2000/svg" xmlns:xlink="http://www.w3.org/1999/xlink" version="1.1">
<metadata>
Created by FontForge 20150824 at Thu Jun  2 02:45:04 2016
 By Everything Fonts
Copyright 2010, 2012 Adobe Systems Incorporated. All Rights Reserved.
</metadata>
<defs>
<font id="SourceSansProBold" horiz-adv-x="0" >
  <font-face 
    font-family="SourceSansProBold"
    font-weight="700"
    font-stretch="normal"
    units-per-em="1000"
    panose-1="2 11 7 3 3 4 3 2 2 4"
    ascent="750"
    descent="-250"
    x-height="496"
    cap-height="652"
    bbox="-231 -383 1223 974"
    underline-thickness="50"
    underline-position="-150"
    unicode-range="U+000D-FB02"
  />
<missing-glyph horiz-adv-x="690" 
d="M80 660h530v-660h-530v660zM273 340l-95 186v-371zM511 155v371l-94 -186zM427 91l-39 77l-41 98h-4l-41 -98l-39 -77h164zM347 414l42 95l32 59h-152l31 -59l43 -95h4z" />
    <glyph glyph-name="f_f" unicode="ff" horiz-adv-x="656" 
d="M661 587q-28 10 -51 10q-27 0 -42 -16.5t-15 -54.5v-30h89v-115h-89v-381h-147v381h-169v-381h-147v381h-66v109l66 5v23q0 38 10.5 72t33 59t58 39.5t86.5 14.5q32 0 59 -5.5t44 -12.5l-27 -109q-12 5 -25 8t-33 3q-26 0 -42.5 -16.5t-16.5 -51.5v-23h169v26
q0 39 9.5 74t31.5 61t56.5 41t84.5 15q32 0 57 -6t42 -12z" />
    <glyph glyph-name="f_t" unicode="ft" horiz-adv-x="688" 
d="M671 6q-20 -6 -47 -12t-63 -6q-46 0 -78.5 14t-53 39t-30 60.5t-9.5 78.5v201h-153v-381h-147v381h-66v109l66 5v27q0 39 9.5 74t31.5 61t57 41t85 15q31 0 56.5 -6t42.5 -12l-27 -108q-28 10 -51 10q-27 0 -42 -16.5t-15 -54.5v-30h161l17 132h122v-132h119v-115h-119
v-199q0 -42 17.5 -60.5t46.5 -18.5q12 0 24.5 3t22.5 7z" />
    <glyph glyph-name=".notdef" horiz-adv-x="690" 
d="M80 660h530v-660h-530v660zM273 340l-95 186v-371zM511 155v371l-94 -186zM427 91l-39 77l-41 98h-4l-41 -98l-39 -77h164zM347 414l42 95l32 59h-152l31 -59l43 -95h4z" />
    <glyph glyph-name=".null" 
 />
    <glyph glyph-name="nonmarkingreturn" horiz-adv-x="333" 
 />
    <glyph glyph-name="NULL" 
 />
    <glyph glyph-name="NULL" 
 />
    <glyph glyph-name="CR" unicode="&#xd;" horiz-adv-x="208" 
 />
    <glyph glyph-name="space" unicode=" " horiz-adv-x="208" 
 />
    <glyph glyph-name="exclam" unicode="!" horiz-adv-x="340" 
d="M101 537l-5 133h148l-5 -133l-21 -306h-96zM81 80q0 40 25.5 66.5t63.5 26.5t63.5 -26.5t25.5 -66.5q0 -39 -25.5 -65.5t-63.5 -26.5t-63.5 26.5t-25.5 65.5z" />
    <glyph glyph-name="quotedbl" unicode="&#x22;" horiz-adv-x="536" 
d="M81 553l-5 133h148l-5 -133l-29 -199h-80zM317 553l-5 133h148l-5 -133l-29 -199h-80z" />
    <glyph glyph-name="numbersign" unicode="#" horiz-adv-x="528" 
d="M108 187h-74v94h85l14 110h-79v94h91l21 165h84l-20 -165h104l21 165h84l-20 -165h79v-94h-91l-13 -110h84v-94h-95l-23 -187h-85l22 187h-103l-23 -187h-85zM308 281l14 110h-104l-13 -110h103z" />
    <glyph glyph-name="dollar" unicode="$" horiz-adv-x="528" 
d="M387 478q-27 25 -52 37.5t-57 12.5q-36 0 -55 -15t-19 -49q0 -24 19.5 -40.5t49 -31.5t63.5 -31t63.5 -39t49 -55.5t19.5 -80.5q0 -72 -39 -123.5t-117 -68.5v-104h-97v100q-44 5 -92.5 24.5t-83.5 51.5l64 99q38 -29 72.5 -43.5t70.5 -14.5q42 0 61.5 17t19.5 52
q0 26 -19.5 44t-49 34.5t-63.5 33t-63.5 39.5t-49 54t-19.5 76q0 74 40.5 122.5t111.5 62.5v103h97v-101q48 -7 84 -29t65 -53z" />
    <glyph glyph-name="percent" unicode="%" horiz-adv-x="857" 
d="M188 250q-35 0 -65 14t-51.5 41t-33.5 65.5t-12 87.5t12 87t33.5 64.5t51.5 40.5t65 14t65 -14t51.5 -40.5t34 -64.5t12.5 -87t-12.5 -87.5t-34 -65.5t-51.5 -41t-65 -14zM188 332q25 0 42.5 28t17.5 98t-17.5 97t-42.5 27t-42.5 -27t-17.5 -97t17.5 -98t42.5 -28z
M210 -12l352 676h85l-352 -676h-85zM669 -12q-35 0 -65 14t-51.5 41t-33.5 65.5t-12 87.5t12 87t33.5 64.5t51.5 40.5t65 14t65 -14t51.5 -40.5t34 -64.5t12.5 -87t-12.5 -87.5t-34 -65.5t-51.5 -41t-65 -14zM669 70q25 0 42.5 28t17.5 98t-17.5 97t-42.5 27t-42.5 -27
t-17.5 -97t17.5 -98t42.5 -28z" />
    <glyph glyph-name="ampersand" unicode="&#x26;" horiz-adv-x="667" 
d="M164 183q0 -37 26.5 -60t70.5 -23q40 0 83 26q-38 31 -72.5 65t-63.5 70q-20 -17 -32 -36t-12 -42zM225 494q0 -18 5.5 -38t15.5 -40q35 21 59 44t24 56q0 23 -11 37t-34 14q-25 0 -42 -19.5t-17 -53.5zM614 -12q-41 8 -83 25t-84 41q-42 -31 -92.5 -48.5t-112.5 -17.5
q-53 0 -93.5 15t-68 40.5t-41.5 59t-14 71.5q0 34 9.5 61.5t26 49.5t38 40t45.5 33q-19 35 -29.5 69.5t-10.5 65.5q0 35 12.5 66t35.5 54.5t55.5 37t73.5 13.5q74 0 117 -40t43 -108q0 -32 -11.5 -58.5t-31 -49t-44 -41.5t-49.5 -36q28 -32 61.5 -62.5t69.5 -56.5
q25 32 44 71t31 85h134q-18 -60 -44.5 -114.5t-64.5 -105.5q31 -16 59.5 -26.5t53.5 -14.5z" />
    <glyph glyph-name="quotesingle" unicode="'" horiz-adv-x="300" 
d="M81 553l-5 133h148l-5 -133l-29 -199h-80z" />
    <glyph glyph-name="parenleft" unicode="(" horiz-adv-x="344" 
d="M204 -179q-63 103 -97.5 214t-34.5 243t34.5 243t97.5 214l92 -38q-55 -98 -80 -205t-25 -214t25 -214t80 -205l-92 -38v0z" />
    <glyph glyph-name="parenright" unicode=")" horiz-adv-x="344" 
d="M48 -141q56 98 81 205t25 214t-25 214t-81 205l92 38q63 -103 97.5 -214t34.5 -243t-34.5 -243t-97.5 -214l-92 38v0z" />
    <glyph glyph-name="asterisk" unicode="*" horiz-adv-x="457" 
d="M87 393l59 104l-108 49l23 72l116 -24l13 118h77l13 -119l115 25l24 -72l-108 -49l59 -104l-61 -44l-80 89l-81 -89z" />
    <glyph glyph-name="plus" unicode="+" horiz-adv-x="528" 
d="M210 278h-176v104h176v184h108v-184h176v-104h-176v-184h-108v184z" />
    <glyph glyph-name="comma" unicode="," horiz-adv-x="300" 
d="M46 -116q55 20 84 52t29 70h-8q-35 0 -62 21.5t-27 61.5q0 38 27 61t65 23q50 0 76 -36.5t26 -102.5q0 -83 -46 -142.5t-134 -85.5z" />
    <glyph glyph-name="hyphen" unicode="-" horiz-adv-x="332" 
d="M43 305h246v-104h-246v104z" />
    <glyph glyph-name="period" unicode="." horiz-adv-x="300" 
d="M61 80q0 40 25.5 66.5t63.5 26.5t63.5 -26.5t25.5 -66.5q0 -39 -25.5 -65.5t-63.5 -26.5t-63.5 26.5t-25.5 65.5z" />
    <glyph glyph-name="slash" unicode="/" horiz-adv-x="339" 
d="M214 710h96l-201 -870h-96z" />
    <glyph glyph-name="zero" unicode="0" horiz-adv-x="528" 
d="M264 -12q-51 0 -93 21.5t-71.5 63.5t-46 104t-16.5 143t16.5 142t46 102.5t71.5 62t93 20.5t93 -20.5t71.5 -62t46 -102.5t16.5 -142t-16.5 -143t-46 -104t-71.5 -63.5t-93 -21.5zM264 102q19 0 35 9.5t28 34.5t18.5 67t6.5 107t-6.5 106.5t-18.5 65t-28 32.5t-35 9
q-18 0 -34 -9t-28 -32.5t-19 -65t-7 -106.5t7 -107t19 -67t28 -34.5t34 -9.5z" />
    <glyph glyph-name="one" unicode="1" horiz-adv-x="528" 
d="M70 119h138v367h-119v91q52 10 88 24t70 34h108v-516h119v-119h-404v119z" />
    <glyph glyph-name="two" unicode="2" horiz-adv-x="528" 
d="M37 84q61 57 111.5 106.5t87 93t57 81t20.5 71.5q0 47 -24 71.5t-66 24.5q-35 0 -62 -19.5t-51 -45.5l-80 79q47 50 96 75.5t117 25.5q47 0 85.5 -14.5t66.5 -41t43 -63.5t15 -83q0 -40 -17 -81.5t-45.5 -83t-65 -83t-75.5 -81.5q24 3 53.5 5.5t52.5 2.5h128v-124h-447
v84z" />
    <glyph glyph-name="three" unicode="3" horiz-adv-x="528" 
d="M90 171q29 -28 63.5 -46t75.5 -18q47 0 75 19.5t28 55.5q0 21 -7.5 38t-26.5 28.5t-52 18t-85 6.5v104q43 0 71.5 6t46 17.5t25 27t7.5 34.5q0 33 -20 51.5t-58 18.5q-34 0 -61.5 -15t-57.5 -41l-74 90q44 38 92.5 59.5t107.5 21.5q49 0 89.5 -11.5t69 -34t44.5 -54.5
t16 -74q0 -50 -27.5 -84.5t-78.5 -56.5v-4q55 -16 90.5 -54.5t35.5 -100.5q0 -44 -19 -78.5t-51 -58t-75 -36t-91 -12.5q-78 0 -132 24.5t-89 65.5z" />
    <glyph glyph-name="four" unicode="4" horiz-adv-x="528" 
d="M294 264v103q0 31 2 71.5t4 70.5h-4q-12 -26 -25 -53t-27 -54l-84 -138h134zM504 152h-73v-152h-137v152h-275v101l232 382h180v-371h73v-112z" />
    <glyph glyph-name="five" unicode="5" horiz-adv-x="528" 
d="M89 170q29 -26 62.5 -44.5t74.5 -18.5q49 0 78 25t29 74q0 48 -27.5 73t-72.5 25q-14 0 -25 -1.5t-21.5 -5.5t-22 -10t-25.5 -15l-66 42l18 321h360v-124h-233l-11 -119q18 8 34.5 11.5t36.5 3.5q41 0 77.5 -12t64.5 -36t44 -61t16 -88q0 -53 -19 -94t-51 -69.5
t-74.5 -43.5t-88.5 -15q-78 0 -132 25.5t-92 63.5z" />
    <glyph glyph-name="six" unicode="6" horiz-adv-x="528" 
d="M278 98q33 0 56.5 24.5t23.5 78.5q0 51 -23.5 71.5t-59.5 20.5q-24 0 -49 -14t-47 -49q5 -38 15 -63t23 -40.5t28.5 -22t32.5 -6.5zM406 483q-17 18 -44 31.5t-55 13.5q-26 0 -49 -10t-40.5 -33.5t-28.5 -61.5t-13 -93q12 16 28 28.5t33 21t34 13t32 4.5q41 0 75.5 -12
t60 -36t39.5 -61t14 -87t-17 -89t-45.5 -67t-67 -42.5t-81.5 -14.5q-46 0 -89.5 18t-77 56t-53.5 97.5t-20 143.5q0 89 21.5 154t57 107t82 62.5t96.5 20.5q63 0 109 -22.5t76 -53.5z" />
    <glyph glyph-name="seven" unicode="7" horiz-adv-x="528" 
d="M159 0q4 79 14.5 145.5t30 127t50 118.5t75.5 120h-285v124h442v-90q-55 -67 -88.5 -125.5t-52 -121t-26.5 -134t-12 -164.5h-148v0z" />
    <glyph glyph-name="eight" unicode="8" horiz-adv-x="528" 
d="M168 179q0 -42 29 -65.5t69 -23.5q37 0 61 19.5t24 59.5q0 21 -9.5 36t-27.5 27.5t-42.5 23.5t-54.5 24q-21 -20 -35 -46t-14 -55zM303 370q39 45 39 93q0 37 -20.5 59.5t-56.5 22.5q-29 0 -50 -18t-21 -55q0 -39 30 -61t79 -41zM42 162q0 58 31.5 95t76.5 61v4
q-37 28 -61 63.5t-24 86.5q0 40 15 72.5t42 55.5t64.5 35t81.5 12q43 0 79 -12.5t61 -35t39 -55t14 -71.5q0 -46 -25 -81.5t-58 -57.5v-4q46 -25 78 -64t32 -102q0 -38 -16 -70t-45.5 -55.5t-71 -37t-92.5 -13.5q-48 0 -88.5 12.5t-70 35.5t-46 55t-16.5 71z" />
    <glyph glyph-name="nine" unicode="9" horiz-adv-x="528" 
d="M252 342q24 0 49 14t46 49q-10 75 -37.5 103.5t-61.5 28.5q-32 0 -56 -24.5t-24 -78.5q0 -51 24 -71.5t60 -20.5zM121 152q16 -18 43 -31.5t55 -13.5q27 0 50 10t40.5 33.5t28 61t12.5 93.5q-12 -16 -28 -28.5t-33 -21t-34 -13t-32 -4.5q-41 0 -75.5 12t-59.5 36
t-39.5 61t-14.5 87q0 49 17 88.5t45.5 67.5t67 42.5t81.5 14.5q46 0 89.5 -18t77 -56t54 -97.5t20.5 -143.5q0 -89 -21.5 -154t-57 -107t-82 -62.5t-96.5 -20.5q-63 0 -109.5 23t-76.5 53z" />
    <glyph glyph-name="colon" unicode=":" horiz-adv-x="300" 
d="M61 404q0 40 25.5 66.5t63.5 26.5t63.5 -26.5t25.5 -66.5q0 -39 -25.5 -65.5t-63.5 -26.5t-63.5 26.5t-25.5 65.5zM61 80q0 40 25.5 66.5t63.5 26.5t63.5 -26.5t25.5 -66.5q0 -39 -25.5 -65.5t-63.5 -26.5t-63.5 26.5t-25.5 65.5z" />
    <glyph glyph-name="semicolon" unicode=";" horiz-adv-x="300" 
d="M61 404q0 40 25.5 66.5t63.5 26.5t63.5 -26.5t25.5 -66.5q0 -39 -25.5 -65.5t-63.5 -26.5t-63.5 26.5t-25.5 65.5zM46 -116q55 20 84 52t29 70h-8q-35 0 -62 21.5t-27 61.5q0 38 27 61t65 23q50 0 76 -36.5t26 -102.5q0 -83 -46 -142.5t-134 -85.5z" />
    <glyph glyph-name="less" unicode="&#x3c;" horiz-adv-x="528" 
d="M34 383l460 177v-121l-176 -58l-135 -47v-4l135 -47l176 -58v-121l-460 177v102z" />
    <glyph glyph-name="equal" unicode="=" horiz-adv-x="528" 
d="M34 498h460v-104h-460v104zM34 267h460v-104h-460v104z" />
    <glyph glyph-name="greater" unicode="&#x3e;" horiz-adv-x="528" 
d="M494 281l-460 -177v121l176 58l135 47v4l-135 47l-176 58v121l460 -177v-102z" />
    <glyph glyph-name="question" unicode="?" horiz-adv-x="463" 
d="M154 231q-5 34 2.5 62t21.5 52t31.5 44t33.5 38.5t26.5 36t10.5 36.5q0 31 -18.5 47t-48.5 16q-28 0 -49.5 -13t-41.5 -33l-81 74q34 41 80 66t102 25q42 0 78.5 -10t63 -31t41.5 -53.5t15 -76.5q0 -31 -11 -55.5t-27.5 -45.5t-35 -40.5t-34 -40.5t-24.5 -44.5t-6 -53.5
h-129zM130 80q0 40 25 66.5t63 26.5t63.5 -26.5t25.5 -66.5q0 -39 -25.5 -65.5t-63.5 -26.5t-63 26.5t-25 65.5z" />
    <glyph glyph-name="at" unicode="@" horiz-adv-x="903" 
d="M49 205q0 105 36 190.5t97.5 146.5t143.5 94t174 33q81 0 146.5 -26t111.5 -73.5t71 -113t25 -143.5q0 -69 -21 -120.5t-54 -86t-73.5 -51.5t-79.5 -17q-43 0 -75 20t-40 56h-2q-21 -29 -55 -47.5t-65 -18.5q-60 0 -96 40.5t-36 109.5q0 46 15.5 90t42.5 78.5t64 55.5
t80 21q25 0 44 -11.5t32 -38.5h2l14 42h91l-46 -220q-21 -86 46 -86q22 0 43.5 12.5t38.5 36t27 57t10 74.5q0 54 -15 103t-48 86.5t-85 59.5t-125 22q-64 0 -125 -26.5t-109 -75t-77 -117t-29 -152.5q0 -74 23.5 -129t64 -91t93 -54t111.5 -18q39 0 79.5 11t72.5 28l32 -80
q-46 -25 -94 -36.5t-102 -11.5q-75 0 -143.5 23t-121 70t-83.5 117.5t-31 166.5zM368 207q0 -67 52 -67q16 0 31.5 10t34.5 35l24 135q-15 29 -46 29q-23 0 -40.5 -14t-30 -35t-19 -46t-6.5 -47z" />
    <glyph glyph-name="A" unicode="A" horiz-adv-x="571" 
d="M353 270l-16 60q-14 49 -26.5 104t-26.5 106h-4q-11 -52 -24 -106.5t-27 -103.5l-16 -60h140zM383 155h-200l-40 -155h-150l205 652h176l205 -652h-156z" />
    <glyph glyph-name="B" unicode="B" horiz-adv-x="604" 
d="M76 652h223q51 0 95 -7.5t76.5 -26.5t51 -50t18.5 -78q0 -22 -6.5 -44t-20 -41t-34.5 -34t-49 -22v-4q70 -13 106 -50t36 -103q0 -50 -19.5 -86t-54 -59.5t-81 -35t-99.5 -11.5h-242v652zM292 389q54 0 79 21.5t25 58.5t-25.5 53t-76.5 16h-70v-149h68zM306 114
q122 0 122 89q0 43 -30.5 62.5t-91.5 19.5h-82v-171h82z" />
    <glyph glyph-name="C" unicode="C" horiz-adv-x="580" 
d="M45 322q0 81 25 144.5t67.5 107.5t99 67t119.5 23q61 0 110.5 -25.5t82.5 -59.5l-81 -91q-25 23 -50 36t-60 13q-34 0 -63.5 -14.5t-51.5 -41.5t-34.5 -66t-12.5 -88q0 -101 43 -156.5t115 -55.5q41 0 70.5 16t53.5 42l81 -89q-41 -48 -93.5 -72t-113.5 -24
q-63 0 -119 21.5t-98 63.5t-66 104.5t-24 144.5z" />
    <glyph glyph-name="D" unicode="D" horiz-adv-x="634" 
d="M76 652h184q75 0 135.5 -19t103.5 -58.5t66 -100.5t23 -145t-23 -146t-65 -102.5t-100.5 -60.5t-130.5 -20h-193v652zM252 119q41 0 75 11t58.5 35.5t38 64.5t13.5 99q0 58 -13.5 97.5t-38 63t-58.5 33.5t-75 10h-28v-414h28z" />
    <glyph glyph-name="E" unicode="E" horiz-adv-x="546" 
d="M76 652h409v-124h-261v-131h222v-123h-222v-150h271v-124h-419v652z" />
    <glyph glyph-name="F" unicode="F" horiz-adv-x="523" 
d="M76 652h412v-124h-264v-151h225v-124h-225v-253h-148v652z" />
    <glyph glyph-name="G" unicode="G" horiz-adv-x="636" 
d="M45 322q0 81 25.5 144.5t69 107.5t102 67t124.5 23q69 0 119.5 -26t83.5 -59l-81 -91q-25 23 -51.5 36t-68.5 13q-38 0 -69.5 -14.5t-54 -41.5t-35.5 -66t-13 -88q0 -101 45.5 -156.5t138.5 -55.5q20 0 38.5 5t30.5 15v112h-108v120h239v-300q-18 -15 -41.5 -29.5
t-51.5 -25.5t-60 -17.5t-66 -6.5q-66 0 -123.5 21.5t-100.5 63.5t-67.5 104.5t-24.5 144.5z" />
    <glyph glyph-name="H" unicode="H" horiz-adv-x="672" 
d="M76 652h148v-251h225v251h147v-652h-147v272h-225v-272h-148v652z" />
    <glyph glyph-name="I" unicode="I" horiz-adv-x="300" 
d="M76 652h148v-652h-148v652z" />
    <glyph glyph-name="J" unicode="J" horiz-adv-x="507" 
d="M115 180q19 -33 42.5 -49t48.5 -16q40 0 60.5 24.5t20.5 89.5v423h148v-435q0 -47 -12.5 -89t-38 -73t-65 -49t-93.5 -18q-75 0 -126 29t-85 89z" />
    <glyph glyph-name="K" unicode="K" horiz-adv-x="613" 
d="M76 652h148v-267h3l195 267h161l-197 -260l234 -392h-162l-158 275l-76 -100v-175h-148v652z" />
    <glyph glyph-name="L" unicode="L" horiz-adv-x="516" 
d="M76 652h148v-528h257v-124h-405v652z" />
    <glyph glyph-name="M" unicode="M" horiz-adv-x="761" 
d="M76 652h156l109 -293l39 -114h4l39 114l106 293h156v-652h-138v239q0 24 2 53t5 58.5t6 58t6 52.5h-4l-53 -151l-101 -253h-59l-100 253l-52 151h-4q3 -24 6 -52.5t6 -58t5 -58.5t2 -53v-239h-136v652z" />
    <glyph glyph-name="N" unicode="N" horiz-adv-x="664" 
d="M76 652h151l170 -324l65 -144h4q-5 52 -12 116t-7 122v230h140v-652h-151l-170 325l-64 142h-4q5 -54 12 -116t7 -120v-231h-141v652z" />
    <glyph glyph-name="O" unicode="O" horiz-adv-x="683" 
d="M341 -12q-66 0 -120.5 23.5t-93.5 67.5t-60.5 107t-21.5 143t21.5 142.5t60.5 105t93.5 65t120.5 22.5t120.5 -22.5t93.5 -65.5t60.5 -105.5t21.5 -141.5q0 -80 -21.5 -143t-60.5 -107t-93.5 -67.5t-120.5 -23.5zM341 115q67 0 106 57.5t39 156.5q0 98 -39 153t-106 55
q-66 0 -105.5 -55t-39.5 -153q0 -49 10.5 -88.5t29 -67.5t45.5 -43t60 -15z" />
    <glyph glyph-name="P" unicode="P" horiz-adv-x="605" 
d="M76 652h238q53 0 99.5 -10.5t81 -35t54.5 -65t20 -99.5q0 -57 -20.5 -99t-55.5 -69t-81 -40t-98 -13h-90v-221h-148v652zM305 338q120 0 120 104q0 51 -30.5 72t-89.5 21h-81v-197h81z" />
    <glyph glyph-name="Q" unicode="Q" horiz-adv-x="683" 
d="M193 329q0 -99 39 -156.5t106 -57.5t106 57.5t39 156.5q0 98 -39 153t-106 55t-106 -55t-39 -153zM668 -157q-18 -9 -47.5 -15t-67.5 -6q-104 0 -175.5 48t-106.5 125q-52 11 -94.5 38.5t-72.5 70.5t-46 99.5t-16 125.5q0 80 21.5 142.5t60.5 105t93.5 65t120.5 22.5
t120.5 -22.5t93.5 -65.5t60.5 -105.5t21.5 -141.5q0 -132 -56 -217t-151 -112q23 -34 62 -47.5t81 -13.5q21 0 39.5 3.5t32.5 8.5z" />
    <glyph glyph-name="R" unicode="R" horiz-adv-x="615" 
d="M224 352h75q58 0 88.5 24.5t30.5 72.5t-30.5 67t-88.5 19h-75v-183zM429 0l-125 235h-80v-235h-148v652h235q52 0 97.5 -10t80 -33.5t54.5 -62.5t20 -97q0 -72 -32 -118.5t-84 -69.5l147 -261h-165z" />
    <glyph glyph-name="S" unicode="S" horiz-adv-x="554" 
d="M119 183q35 -30 77 -49t83 -19q46 0 68.5 17t22.5 46q0 15 -6.5 26t-19 19.5t-30 16l-38.5 16.5l-84 36q-26 10 -49.5 26t-42 37.5t-29.5 50t-11 64.5q0 40 17.5 75.5t48 62t73 41.5t93.5 15q57 0 112.5 -22t97.5 -64l-74 -93q-32 25 -64.5 38.5t-71.5 13.5
q-38 0 -60.5 -15.5t-22.5 -43.5q0 -15 7.5 -25.5t21 -19t32 -16t39.5 -16.5l83 -34q60 -24 94.5 -66t34.5 -111q0 -41 -16.5 -77.5t-48 -64t-77 -44t-103.5 -16.5q-64 0 -127.5 23.5t-114.5 70.5z" />
    <glyph glyph-name="T" unicode="T" horiz-adv-x="555" 
d="M204 528h-180v124h506v-124h-179v-528h-147v528z" />
    <glyph glyph-name="U" unicode="U" horiz-adv-x="663" 
d="M73 652h147v-365q0 -96 29 -134t84 -38t85.5 38t30.5 134v365h142v-350q0 -164 -65.5 -239t-192.5 -75t-193.5 75t-66.5 239v350z" />
    <glyph glyph-name="V" unicode="V" horiz-adv-x="555" 
d="M-8 652h156l79 -304q14 -54 25.5 -104.5t26.5 -104.5h4q15 54 26.5 104.5t25.5 104.5l77 304h151l-197 -652h-177z" />
    <glyph glyph-name="W" unicode="W" horiz-adv-x="812" 
d="M13 652h151l45 -305q7 -51 13.5 -102.5t13.5 -103.5h4q9 52 18.5 103.5t19.5 102.5l70 305h125l71 -305q10 -50 19.5 -101.5t19.5 -104.5h4q6 53 12.5 104t13.5 102l45 305h141l-116 -652h-185l-64 296q-8 38 -14.5 76.5t-11.5 74.5h-4q-6 -36 -12 -74.5t-14 -76.5
l-62 -296h-182z" />
    <glyph glyph-name="X" unicode="X" horiz-adv-x="566" 
d="M191 335l-170 317h165l56 -123q11 -23 22.5 -48.5t25.5 -56.5h4q11 31 21 56.5t20 48.5l52 123h157l-169 -324l180 -328h-164l-64 133q-13 26 -24.5 51.5t-24.5 55.5h-4q-12 -30 -23 -55.5t-22 -51.5l-61 -133h-157z" />
    <glyph glyph-name="Y" unicode="Y" horiz-adv-x="524" 
d="M188 232l-196 420h157l59 -150q13 -37 26 -71.5t27 -72.5h4q14 38 27.5 72.5t27.5 71.5l58 150h154l-197 -420v-232h-147v232z" />
    <glyph glyph-name="Z" unicode="Z" horiz-adv-x="540" 
d="M35 89l288 439h-261v124h443v-89l-288 -439h290v-124h-472v89z" />
    <glyph glyph-name="bracketleft" unicode="[" horiz-adv-x="344" 
d="M87 708h211v-78h-101v-704h101v-78h-211v860z" />
    <glyph glyph-name="backslash" unicode="\" horiz-adv-x="339" 
d="M28 710h96l202 -870h-97z" />
    <glyph glyph-name="bracketright" unicode="]" horiz-adv-x="344" 
d="M148 -74v704h-102v78h211v-860h-211v78h102z" />
    <glyph glyph-name="asciicircum" unicode="^" horiz-adv-x="528" 
d="M205 670h118l155 -396h-121l-46 128l-45 135h-4l-45 -135l-46 -128h-121z" />
    <glyph glyph-name="underscore" unicode="_" horiz-adv-x="500" 
d="M488 -57v-83h-476v83h476z" />
    <glyph glyph-name="grave" unicode="`" horiz-adv-x="555" 
d="M129 724h142l89 -150h-107z" />
    <glyph glyph-name="a" unicode="a" horiz-adv-x="534" 
d="M47 138q0 78 66 122t213 59q-2 33 -20 52.5t-58 19.5q-32 0 -64 -12t-68 -33l-52 97q48 29 100.5 47t111.5 18q96 0 146.5 -54.5t50.5 -169.5v-284h-120l-11 51h-3q-32 -28 -67.5 -45.5t-77.5 -17.5q-34 0 -61 11.5t-46 32t-29.5 47.5t-10.5 59zM187 149
q0 -24 15.5 -35.5t41.5 -11.5t44 11t38 31v87q-79 -11 -109 -32t-30 -50z" />
    <glyph glyph-name="b" unicode="b" horiz-adv-x="573" 
d="M65 701h147v-172l-4 -76q29 26 62.5 40.5t68.5 14.5q45 0 81 -18t61.5 -50.5t39 -79t13.5 -103.5q0 -64 -17.5 -114t-47 -84.5t-67 -52.5t-77.5 -18q-33 0 -66.5 16t-62.5 48h-4l-12 -52h-115v701zM212 140q20 -18 40 -25t39 -7q38 0 65 34.5t27 111.5q0 134 -86 134
q-44 0 -85 -45v-203z" />
    <glyph glyph-name="c" unicode="c" horiz-adv-x="467" 
d="M36 248q0 62 21 110.5t56.5 81.5t82.5 50.5t98 17.5q46 0 83 -15.5t62 -41.5l-67 -91q-35 29 -69 29q-54 0 -85 -38t-31 -103t31.5 -103t79.5 -38q27 0 49 11t40 25l59 -93q-36 -32 -80 -47t-85 -15q-52 0 -96.5 17.5t-77.5 50.5t-52 81.5t-19 110.5z" />
    <glyph glyph-name="d" unicode="d" horiz-adv-x="573" 
d="M39 248q0 61 17.5 109t46 81.5t66 51.5t76.5 18q42 0 69 -14t53 -38l-6 76v169h147v-701h-120l-10 49h-4q-26 -26 -61 -43.5t-71 -17.5q-46 0 -83.5 18t-64 51.5t-41 81.5t-14.5 109zM190 250q0 -74 23.5 -108t66.5 -34q24 0 43.5 10t37.5 35v203q-20 18 -41 25t-41 7
q-35 0 -62 -33.5t-27 -104.5z" />
    <glyph glyph-name="e" unicode="e" horiz-adv-x="518" 
d="M36 248q0 60 20 108.5t52.5 82t74.5 51.5t87 18q53 0 92.5 -18t66 -50t39.5 -75.5t13 -94.5q0 -20 -2 -36.5t-4 -25.5h-297q10 -57 44.5 -82.5t84.5 -25.5q53 0 107 33l49 -89q-38 -26 -84.5 -41t-91.5 -15q-53 0 -99 17.5t-80 51t-53 81.5t-19 110zM356 299q0 43 -19 70
t-64 27q-35 0 -61.5 -23.5t-34.5 -73.5h179z" />
    <glyph glyph-name="f" unicode="f" horiz-adv-x="341" 
d="M345 587q-28 10 -51 10q-27 0 -42 -16.5t-15 -54.5v-30h89v-115h-89v-381h-147v381h-66v109l66 5v27q0 39 9.5 74t31.5 61t57 41t85 15q31 0 56.5 -6t42.5 -12z" />
    <glyph glyph-name="g" unicode="g" horiz-adv-x="534" 
d="M155 -62q0 -28 30 -42.5t80 -14.5t82 17.5t32 43.5q0 23 -19.5 31t-56.5 8h-51q-26 0 -42 1.5t-28 4.5q-27 -24 -27 -49zM34 -85q0 60 71 100v4q-20 13 -33 33t-13 51q0 27 16 51.5t40 41.5v4q-26 18 -46.5 51.5t-20.5 77.5q0 45 17 78.5t45.5 56t65.5 33.5t77 11
q44 0 77 -12h181v-107h-79q7 -11 11.5 -28t4.5 -37q0 -43 -15 -74.5t-41.5 -52t-62 -30.5t-76.5 -10q-29 0 -60 10q-10 -8 -14 -16t-4 -21q0 -19 16.5 -28t58.5 -9h80q92 0 140.5 -29.5t48.5 -96.5q0 -39 -19.5 -71.5t-55.5 -56t-87 -37t-115 -13.5q-44 0 -81.5 7.5
t-66 22.5t-44.5 39t-16 57zM253 246q29 0 48.5 20.5t19.5 62.5q0 39 -19.5 59.5t-48.5 20.5t-48.5 -20t-19.5 -60q0 -42 19.5 -62.5t48.5 -20.5z" />
    <glyph glyph-name="h" unicode="h" horiz-adv-x="571" 
d="M65 701h147v-172l-7 -89q28 25 65 46.5t88 21.5q81 0 117.5 -53t36.5 -147v-308h-147v289q0 54 -14.5 74t-46.5 20q-28 0 -48 -12.5t-44 -35.5v-335h-147v701z" />
    <glyph glyph-name="i" unicode="i" horiz-adv-x="276" 
d="M138 569q-37 0 -61 21.5t-24 55.5t24 55t61 21q38 0 61.5 -21t23.5 -55t-23.5 -55.5t-61.5 -21.5zM65 496h147v-496h-147v496z" />
    <glyph glyph-name="j" unicode="j" horiz-adv-x="278" 
d="M66 496h147v-493q0 -41 -8.5 -77t-29 -63t-54.5 -43t-85 -16q-31 0 -51.5 4t-35.5 10l26 108q10 -3 19 -5t20 -2q29 0 40.5 19t11.5 61v497zM140 569q-37 0 -61 21.5t-24 55.5t24 55t61 21t61 -21t24 -55t-24 -55.5t-61 -21.5z" />
    <glyph glyph-name="k" unicode="k" horiz-adv-x="548" 
d="M65 701h143v-402h4l157 197h160l-174 -204l187 -292h-159l-112 193l-63 -71v-122h-143v701z" />
    <glyph glyph-name="l" unicode="l" horiz-adv-x="286" 
d="M65 701h147v-553q0 -23 8.5 -32t17.5 -9h8.5t9.5 2l18 -109q-12 -5 -30.5 -8.5t-43.5 -3.5q-38 0 -64 12t-41.5 33.5t-22.5 52t-7 68.5v547z" />
    <glyph glyph-name="m" unicode="m" horiz-adv-x="857" 
d="M65 496h120l10 -64h4q31 31 66 53.5t84 22.5q53 0 85.5 -21.5t51.5 -61.5q33 34 69.5 58.5t86.5 24.5q80 0 117.5 -53.5t37.5 -146.5v-308h-147v289q0 54 -14.5 74t-46.5 20q-37 0 -85 -48v-335h-147v289q0 54 -14.5 74t-46.5 20q-38 0 -84 -48v-335h-147v496z" />
    <glyph glyph-name="n" unicode="n" horiz-adv-x="572" 
d="M65 496h120l10 -63h4q32 30 70 52.5t89 22.5q81 0 117.5 -53t36.5 -147v-308h-147v289q0 54 -14.5 74t-46.5 20q-28 0 -48 -12.5t-44 -35.5v-335h-147v496z" />
    <glyph glyph-name="o" unicode="o" horiz-adv-x="555" 
d="M36 248q0 62 20 110.5t53.5 81.5t77.5 50.5t91 17.5t90.5 -17.5t77 -50.5t53.5 -81.5t20 -110.5t-20 -110.5t-53.5 -81.5t-77 -50.5t-90.5 -17.5t-91 17.5t-77.5 50.5t-53.5 81.5t-20 110.5zM187 248q0 -65 22.5 -103t68.5 -38q45 0 68 38t23 103t-23 103t-68 38
q-46 0 -68.5 -38t-22.5 -103z" />
    <glyph glyph-name="p" unicode="p" horiz-adv-x="573" 
d="M212 -39v-145h-147v680h120l10 -49h4q29 26 65.5 43.5t75.5 17.5q45 0 81 -18t61 -51t38.5 -79.5t13.5 -103.5q0 -64 -17.5 -113.5t-47 -84t-67 -52.5t-77.5 -18q-32 0 -62 13.5t-56 38.5zM212 140q20 -18 40 -25t39 -7q38 0 65 34.5t27 111.5q0 134 -86 134
q-43 0 -85 -45v-203z" />
    <glyph glyph-name="q" unicode="q" horiz-adv-x="572" 
d="M39 248q0 61 17.5 109t46 81.5t66 51.5t76.5 18q41 0 72 -14.5t60 -46.5h4l12 49h115v-680h-147v151l6 76q-25 -24 -58 -39.5t-67 -15.5q-46 0 -83.5 18t-64 51.5t-41 81.5t-14.5 109zM190 250q0 -74 23.5 -108t66.5 -34q24 0 43.5 10t37.5 35v203q-20 18 -41 25t-41 7
q-35 0 -62 -33.5t-27 -104.5z" />
    <glyph glyph-name="r" unicode="r" horiz-adv-x="398" 
d="M65 496h120l10 -87h4q27 51 65 75t76 24q21 0 34.5 -2.5t24.5 -7.5l-24 -127q-14 4 -26 6t-28 2q-28 0 -58.5 -20t-50.5 -71v-288h-147v496z" />
    <glyph glyph-name="s" unicode="s" horiz-adv-x="443" 
d="M87 149q34 -26 65 -39t63 -13q33 0 48 11t15 31q0 12 -8.5 21.5t-23 17.5t-32.5 14.5t-37 14.5q-23 9 -46 21t-42 29.5t-31 41t-12 54.5q0 34 13.5 63t38.5 49t60 31.5t78 11.5q57 0 100 -19.5t75 -43.5l-66 -88q-27 20 -53 31t-52 11q-56 0 -56 -39q0 -12 8 -20.5
t21.5 -15.5t31 -13.5t36.5 -13.5q24 -9 47.5 -20.5t43 -28.5t31.5 -41.5t12 -58.5t-13 -63t-39 -50.5t-64 -34t-88 -12.5q-49 0 -100.5 19t-89.5 50z" />
    <glyph glyph-name="t" unicode="t" horiz-adv-x="383" 
d="M85 381h-68v109l76 6l17 132h122v-132h119v-115h-119v-199q0 -42 17.5 -60.5t46.5 -18.5q12 0 24.5 3t22.5 7l23 -107q-20 -6 -47 -12t-63 -6q-46 0 -78.5 14t-53 39t-30 60.5t-9.5 78.5v201z" />
    <glyph glyph-name="u" unicode="u" horiz-adv-x="568" 
d="M60 496h147v-289q0 -54 15 -74t47 -20q28 0 47 13t41 42v328h147v-496h-120l-11 69h-3q-32 -38 -68.5 -59.5t-87.5 -21.5q-81 0 -117.5 53t-36.5 147v308z" />
    <glyph glyph-name="v" unicode="v" horiz-adv-x="523" 
d="M12 496h148l64 -234q10 -37 19.5 -75.5t19.5 -77.5h4q9 39 18.5 77.5t19.5 75.5l65 234h141l-162 -496h-170z" />
    <glyph glyph-name="w" unicode="w" horiz-adv-x="776" 
d="M24 496h146l48 -230q6 -37 11 -73t11 -74h4q7 38 13.5 75t15.5 72l55 230h127l56 -230q9 -37 16 -73t15 -74h4q7 38 11.5 74t11.5 73l47 230h136l-119 -496h-172l-45 198q-8 35 -14 70t-13 75h-4q-7 -40 -12.5 -75t-12.5 -70l-44 -198h-168z" />
    <glyph glyph-name="x" unicode="x" horiz-adv-x="514" 
d="M166 258l-143 238h158l44 -80q10 -21 20.5 -42.5t21.5 -42.5h4q8 21 17 42.5t17 42.5l34 80h152l-144 -255l153 -241h-158l-48 82q-12 21 -23.5 43t-23.5 43h-4q-9 -21 -19 -42.5t-19 -43.5l-39 -82h-152z" />
    <glyph glyph-name="y" unicode="y" horiz-adv-x="521" 
d="M76 -72q7 -2 16 -4t17 -2q37 0 57 18t30 47l7 26l-191 483h148l71 -213q11 -34 20 -69t19 -72h4q8 35 16.5 70.5t17.5 70.5l60 213h141l-172 -501q-18 -47 -37.5 -82.5t-45 -59t-58 -35.5t-76.5 -12q-23 0 -39 2.5t-31 7.5l26 112v0z" />
    <glyph glyph-name="z" unicode="z" horiz-adv-x="460" 
d="M38 79l208 302h-185v115h368v-78l-208 -303h215v-115h-398v79z" />
    <glyph glyph-name="braceleft" unicode="{" horiz-adv-x="344" 
d="M107 -10q0 27 1.5 48t3.5 40.5t3.5 39t1.5 43.5q0 13 -4.5 26t-14.5 23.5t-26.5 17t-40.5 7.5v86q24 1 40.5 7.5t26.5 17t14.5 23.5t4.5 26q0 23 -1.5 43t-3.5 39.5t-3.5 41t-1.5 47.5q0 80 31 111t97 31h63v-78h-19q-31 0 -42 -14.5t-11 -55.5q0 -40 2 -79t2 -84
q0 -57 -18 -82.5t-56 -34.5v-4q38 -9 56 -34.5t18 -82.5q0 -46 -2 -84t-2 -79t11 -55.5t42 -14.5h19v-78h-63q-66 0 -97 30.5t-31 111.5z" />
    <glyph glyph-name="bar" unicode="|" horiz-adv-x="268" 
d="M86 750h96v-1000h-96v1000z" />
    <glyph glyph-name="braceright" unicode="}" horiz-adv-x="344" 
d="M65 -74q31 0 42 14.5t11 55.5t-2 79t-2 84q0 57 18 82.5t56 34.5v4q-38 9 -56 34.5t-18 82.5q0 45 2 84t2 79q0 41 -11 55.5t-42 14.5h-19v78h63q66 0 97 -31t31 -111q0 -26 -1.5 -47.5t-3.5 -41t-3.5 -39.5t-1.5 -43q0 -13 4.5 -26t14.5 -23.5t26.5 -17t40.5 -7.5v-86
q-24 -1 -40.5 -7.5t-26.5 -17t-14.5 -23.5t-4.5 -26q0 -24 1.5 -43.5t3.5 -39t3.5 -40.5t1.5 -48q0 -81 -31 -111.5t-97 -30.5h-63v78h19z" />
    <glyph glyph-name="asciitilde" unicode="~" horiz-adv-x="528" 
d="M29 317q37 57 74.5 80t75.5 23q31 0 54 -12t42.5 -26t37 -26t38.5 -12t38.5 15t33.5 43l76 -59q-37 -57 -74.5 -80t-75.5 -23q-31 0 -54 12t-42.5 26t-37 26t-38.5 12q-20 0 -38 -15t-34 -43z" />
    <glyph glyph-name="uni00A0" unicode="&#xa0;" horiz-adv-x="208" 
 />
    <glyph glyph-name="exclamdown" unicode="&#xa1;" horiz-adv-x="340" 
d="M239 -41l5 -133h-148l5 133l21 306h96zM259 416q0 -40 -25.5 -66.5t-63.5 -26.5t-63.5 26.5t-25.5 66.5q0 39 25.5 65.5t63.5 26.5t63.5 -26.5t25.5 -65.5z" />
    <glyph glyph-name="cent" unicode="&#xa2;" horiz-adv-x="528" 
d="M275 432q-36 -16 -54 -48t-18 -77t18.5 -77.5t53.5 -47.5v250zM487 113q-29 -25 -63 -39.5t-68 -19.5v-95h-81v95q-49 6 -88.5 26t-67.5 52.5t-43.5 76.5t-15.5 98q0 53 16 96t45 74.5t68 52t86 28.5v97h81v-93q39 -4 70.5 -18.5t53.5 -37.5l-67 -90q-30 24 -57 27v-272
q21 4 39 13.5t33 21.5z" />
    <glyph glyph-name="sterling" unicode="&#xa3;" horiz-adv-x="528" 
d="M238 124h259v-124h-449v91q45 20 75.5 59.5t30.5 93.5q0 7 -0.5 13.5t-1.5 13.5h-100v86l68 5h6q-7 20 -11.5 40t-4.5 40q0 47 16 85t44.5 64.5t67.5 41t86 14.5q56 0 97.5 -21t75.5 -60l-80 -80q-17 21 -36 31.5t-43 10.5q-40 0 -63.5 -23t-23.5 -71q0 -18 3 -36t8 -36
h148v-91h-129q1 -7 1.5 -14t0.5 -14q0 -36 -10.5 -62t-34.5 -53v-4z" />
    <glyph glyph-name="currency" unicode="&#xa4;" horiz-adv-x="528" 
d="M20 157l61 62q-34 46 -34 111q0 32 8.5 59.5t24.5 49.5l-60 62l73 74l69 -70q48 25 102 25q52 0 102 -25l69 70l73 -74l-61 -62q34 -45 34 -109q0 -33 -9 -60.5t-25 -50.5l61 -62l-73 -74l-70 71q-23 -12 -49 -18t-52 -6q-55 0 -101 24l-70 -71zM178 330q0 -45 25 -71.5
t61 -26.5t61 26.5t25 71.5t-25 71.5t-61 26.5t-61 -26.5t-25 -71.5z" />
    <glyph glyph-name="yen" unicode="&#xa5;" horiz-adv-x="528" 
d="M163 635l51 -133l24 -66t26 -65h4q13 33 25 66t25 65l50 133h148l-147 -293h122v-70h-154v-55h154v-70h-154v-147h-147v147h-153v70h153v55h-153v70h122l-147 293h151z" />
    <glyph glyph-name="brokenbar" unicode="&#xa6;" horiz-adv-x="268" 
d="M86 750h96v-438h-96v438zM182 204v-454h-96v454h96z" />
    <glyph glyph-name="section" unicode="&#xa7;" horiz-adv-x="528" 
d="M161 337q0 -24 16 -40.5t41 -30t55.5 -26t59.5 -27.5q34 21 34 59q0 24 -16 40.5t-40.5 30t-55 25.5t-59.5 27q-35 -23 -35 -58zM379 533q-23 20 -51 34t-54 14q-54 0 -54 -39q0 -18 20 -31.5t50 -27t65.5 -29.5t65.5 -38.5t50 -54.5t20 -77q0 -44 -21.5 -76.5
t-60.5 -56.5q11 -16 17 -35t6 -42q0 -34 -12.5 -63t-36.5 -50t-60 -33t-83 -12q-55 0 -107.5 20.5t-86.5 63.5l85 75q49 -51 109 -51q31 0 45.5 12t14.5 31t-19.5 33t-48.5 27t-63.5 28t-63.5 37.5t-48.5 54.5t-19.5 79q0 38 21.5 71.5t58.5 56.5q-14 16 -21.5 36.5
t-7.5 46.5q0 68 46.5 110.5t131.5 42.5q58 0 103.5 -20.5t76.5 -44.5z" />
    <glyph glyph-name="dieresis" unicode="&#xa8;" horiz-adv-x="555" 
d="M179 571q-31 0 -50.5 20t-19.5 50q0 29 19.5 49t50.5 20t50.5 -20t19.5 -49q0 -30 -19.5 -50t-50.5 -20zM377 571q-31 0 -50.5 20t-19.5 50q0 29 19.5 49t50.5 20t50.5 -20t19.5 -49q0 -30 -19.5 -50t-50.5 -20z" />
    <glyph glyph-name="copyright" unicode="&#xa9;" horiz-adv-x="750" 
d="M45 325q0 78 26.5 139t72 103.5t105.5 65t126 22.5t126 -22.5t105 -65t71.5 -104t26.5 -138.5q0 -78 -26.5 -139.5t-71.5 -105t-105 -66.5t-126 -23t-126 23t-105.5 66.5t-72 105t-26.5 139.5zM113 325q0 -62 20.5 -112t55.5 -86t83 -55.5t103 -19.5t103 19.5t83 55.5
t55.5 86t20.5 112q0 61 -20.5 111t-55.5 85.5t-83 54.5t-103 19t-103 -19t-83 -54.5t-55.5 -85.5t-20.5 -111zM194 324q0 44 16 79.5t42.5 60.5t61.5 38.5t73 13.5q46 0 77 -17.5t55 -41.5l-55 -61q-16 17 -32 25.5t-36 8.5q-48 0 -72.5 -30.5t-24.5 -75.5q0 -51 25 -81
t67 -30q25 0 43 9.5t37 24.5l48 -68q-29 -23 -61 -37.5t-71 -14.5q-42 0 -77.5 14t-61 39.5t-40 62t-14.5 81.5z" />
    <glyph glyph-name="ordfeminine" unicode="&#xaa;" horiz-adv-x="359" 
d="M130 252q-47 0 -74 29t-27 71q0 53 44 81.5t143 38.5q-2 21 -13.5 32t-35.5 11q-20 0 -43 -8t-47 -22l-37 69q33 19 69.5 31t75.5 12q64 0 99.5 -36.5t35.5 -111.5v-189h-83l-10 33h-4q-18 -18 -41 -29.5t-52 -11.5zM165 331q15 0 26.5 6.5t24.5 18.5v56q-50 -6 -69 -20
t-19 -32q0 -29 37 -29z" />
    <glyph glyph-name="guillemotleft" unicode="&#xab;" horiz-adv-x="480" 
d="M49 200v104l134 144l55 -44l-111 -152l111 -152l-55 -44zM237 200v104l134 144l55 -44l-111 -152l111 -152l-55 -44z" />
    <glyph glyph-name="logicalnot" unicode="&#xac;" horiz-adv-x="528" 
d="M34 382h460v-288h-108v184h-352v104z" />
    <glyph glyph-name="uni00AD" unicode="&#xad;" horiz-adv-x="332" 
d="M43 305h246v-104h-246v104z" />
    <glyph glyph-name="registered" unicode="&#xae;" horiz-adv-x="462" 
d="M231 311q-41 0 -77.5 15t-63.5 42t-42.5 64t-15.5 81t15.5 81t42.5 64t63.5 42t77.5 15t77 -15t63 -42t42.5 -64t15.5 -81t-15.5 -81t-42.5 -64t-63 -42t-77 -15zM231 360q63 0 103 41.5t40 111.5t-40 111.5t-103 41.5q-32 0 -58 -11t-45.5 -31t-30 -48t-10.5 -63
t10.5 -63t30 -48t45.5 -31t58 -11zM150 613h89q35 0 58 -16t23 -50q0 -37 -35 -54l41 -77h-60l-30 60h-29v-60h-57v197zM228 516q15 0 22.5 8.5t7.5 19.5t-7.5 18.5t-22.5 7.5h-21v-54h21z" />
    <glyph glyph-name="macron" unicode="&#xaf;" horiz-adv-x="555" 
d="M140 685h276v-93h-276v93z" />
    <glyph glyph-name="degree" unicode="&#xb0;" horiz-adv-x="365" 
d="M183 398q-30 0 -56.5 10.5t-46 30t-30.5 45.5t-11 58q0 31 11 57.5t30.5 46t46 30t56.5 10.5t56.5 -10.5t46 -30t31 -46t11.5 -57.5q0 -32 -11.5 -58t-31 -45.5t-46 -30t-56.5 -10.5zM183 468q30 0 48.5 20.5t18.5 53.5q0 32 -18.5 52.5t-48.5 20.5q-29 0 -48 -20.5
t-19 -52.5q0 -33 19 -53.5t48 -20.5z" />
    <glyph glyph-name="plusminus" unicode="&#xb1;" horiz-adv-x="528" 
d="M210 294h-176v104h176v168h108v-168h176v-104h-176v-136h-108v136zM34 104h460v-104h-460v104z" />
    <glyph glyph-name="two.sups" unicode="&#xb2;" horiz-adv-x="376" 
d="M45 498q75 62 123 109.5t48 84.5q0 29 -15 45t-42 16q-20 0 -37 -12.5t-34 -34.5l-61 56q60 80 149 80q65 0 104.5 -34.5t39.5 -97.5q0 -24 -8.5 -46.5t-23 -44.5t-33 -44t-39.5 -45h118v-90h-289v58z" />
    <glyph glyph-name="three.sups" unicode="&#xb3;" horiz-adv-x="376" 
d="M92 558q35 -48 83 -48q23 0 39.5 12t16.5 35q0 51 -93 51v62q36 0 57.5 11.5t21.5 36.5q0 20 -13 31t-36 11q-19 0 -34.5 -11t-29.5 -28l-61 54q32 35 65 51t79 16q27 0 51.5 -7.5t43.5 -21.5t30 -34.5t11 -45.5q0 -31 -15 -52.5t-42 -37.5q30 -12 50.5 -35.5t20.5 -58.5
q0 -27 -12.5 -49.5t-33 -38t-48 -24.5t-57.5 -9q-51 0 -92 20.5t-67 58.5z" />
    <glyph glyph-name="acute" unicode="&#xb4;" horiz-adv-x="555" 
d="M303 574h-107l89 150h142z" />
    <glyph glyph-name="uni00B5" unicode="&#xb5;" horiz-adv-x="573" 
d="M65 496h147v-289q0 -54 14.5 -74t46.5 -20q28 0 47.5 13t41.5 42v328h147v-496h-120l-11 69h-4q-19 -36 -47.5 -54.5t-61.5 -18.5q-18 0 -33.5 4t-28.5 18l9 -90v-128h-147v696z" />
    <glyph glyph-name="paragraph" unicode="&#xb6;" horiz-adv-x="636" 
d="M393 652h147v-732h-147v732zM297 197q-53 0 -100 14.5t-82 44t-55.5 73t-20.5 100.5q0 63 20 105.5t54.5 69t81 37.5t98.5 11h44v-455h-40z" />
    <glyph glyph-name="periodcentered" unicode="&#xb7;" horiz-adv-x="300" 
d="M61 320q0 40 25.5 66.5t63.5 26.5t63.5 -26.5t25.5 -66.5q0 -39 -25.5 -65.5t-63.5 -26.5t-63.5 26.5t-25.5 65.5z" />
    <glyph glyph-name="cedilla" unicode="&#xb8;" horiz-adv-x="555" 
d="M240 4h86l-20 -47q26 -8 42 -25.5t16 -48.5q0 -26 -14.5 -44.5t-38.5 -31.5t-56 -19.5t-68 -8.5l-11 59q36 4 59.5 14t23.5 30q0 13 -12.5 23.5t-46.5 18.5z" />
    <glyph glyph-name="one.sups" unicode="&#xb9;" horiz-adv-x="376" 
d="M165 721h-89v66q20 3 35.5 7t28.5 9t24.5 11.5t23.5 15.5h86v-390h-109v281z" />
    <glyph glyph-name="ordmasculine" unicode="&#xba;" horiz-adv-x="373" 
d="M186 252q-32 0 -61 11.5t-51.5 34t-36 54t-13.5 72.5t13.5 73t36 54.5t51.5 34t61 11.5t61 -11.5t51.5 -34t36 -54.5t13.5 -73t-13.5 -72.5t-36 -54t-51.5 -34t-61 -11.5zM186 334q29 0 43 24.5t14 65.5q0 42 -14 66.5t-43 24.5t-42.5 -24.5t-13.5 -66.5
q0 -41 13.5 -65.5t42.5 -24.5z" />
    <glyph glyph-name="guillemotright" unicode="&#xbb;" horiz-adv-x="480" 
d="M165 252l-111 152l55 44l134 -144v-104l-134 -144l-55 44zM353 252l-111 152l55 44l134 -144v-104l-134 -144l-55 44z" />
    <glyph glyph-name="onequarter" unicode="&#xbc;" horiz-adv-x="809" 
d="M136 543h-89v66q20 3 35.5 7t28.5 9t24.5 11.5t23.5 15.5h86v-390h-109v281zM185 -12l352 676h85l-352 -676h-85zM647 157v41l6 117h-4l-40 -77l-42 -81h80zM801 87h-58v-87h-96v87h-179v54l141 249h134v-233h58v-70z" />
    <glyph glyph-name="onehalf" unicode="&#xbd;" horiz-adv-x="846" 
d="M136 543h-89v66q20 3 35.5 7t28.5 9t24.5 11.5t23.5 15.5h86v-390h-109v281zM170 -12l352 676h85l-352 -676h-85zM514 58q75 62 123 109.5t48 84.5q0 29 -15 45t-42 16q-20 0 -37 -12.5t-34 -34.5l-61 56q60 80 149 80q65 0 104.5 -34.5t39.5 -97.5q0 -24 -8.5 -46.5
t-23 -44.5t-33 -44t-39.5 -45h118v-90h-289v58z" />
    <glyph glyph-name="threequarters" unicode="&#xbe;" horiz-adv-x="818" 
d="M90 380q35 -48 83 -48q23 0 39.5 12t16.5 35q0 51 -93 51v62q36 0 57.5 11.5t21.5 36.5q0 20 -13 31t-36 11q-19 0 -34.5 -11t-29.5 -28l-61 54q32 35 65 51t79 16q27 0 51.5 -7.5t43.5 -21.5t30 -34.5t11 -45.5q0 -31 -15 -52.5t-42 -37.5q30 -12 50.5 -35.5t20.5 -58.5
q0 -27 -12.5 -49.5t-33 -38t-48 -24.5t-57.5 -9q-51 0 -92 20.5t-67 58.5zM207 -12l352 676h85l-352 -676h-85zM655 157v41l6 117h-4l-40 -77l-42 -81h80zM809 87h-58v-87h-96v87h-179v54l141 249h134v-233h58v-70z" />
    <glyph glyph-name="questiondown" unicode="&#xbf;" horiz-adv-x="463" 
d="M309 265q5 -34 -2.5 -62t-21.5 -52t-31.5 -44t-33.5 -38.5t-26.5 -36t-10.5 -36.5q0 -31 19 -47t48 -16q28 0 49.5 13t41.5 33l81 -74q-34 -41 -80 -66t-102 -25q-42 0 -78.5 10t-63 31t-41.5 53.5t-15 77.5q0 31 11 55.5t27.5 45.5t35 40.5t34 40t25 44t6.5 53.5h128z
M334 416q0 -40 -25.5 -66.5t-63.5 -26.5t-63.5 26.5t-25.5 66.5q0 39 25.5 65.5t63.5 26.5t63.5 -26.5t25.5 -65.5z" />
    <glyph glyph-name="Agrave" unicode="&#xc0;" horiz-adv-x="571" 
d="M353 270l-16 60q-14 49 -26.5 104t-26.5 106h-4q-11 -52 -24 -106.5t-27 -103.5l-16 -60h140zM383 155h-200l-40 -155h-150l205 652h176l205 -652h-156zM120 822h156l81 -120h-117z" />
    <glyph glyph-name="Aacute" unicode="&#xc1;" horiz-adv-x="571" 
d="M353 270l-16 60q-14 49 -26.5 104t-26.5 106h-4q-11 -52 -24 -106.5t-27 -103.5l-16 -60h140zM383 155h-200l-40 -155h-150l205 652h176l205 -652h-156zM324 702h-117l81 120h156z" />
    <glyph glyph-name="Acircumflex" unicode="&#xc2;" horiz-adv-x="571" 
d="M353 270l-16 60q-14 49 -26.5 104t-26.5 106h-4q-11 -52 -24 -106.5t-27 -103.5l-16 -60h140zM383 155h-200l-40 -155h-150l205 652h176l205 -652h-156zM114 702l96 120h144l96 -120h-113l-53 61h-4l-53 -61h-113z" />
    <glyph glyph-name="Atilde" unicode="&#xc3;" horiz-adv-x="571" 
d="M353 270l-16 60q-14 49 -26.5 104t-26.5 106h-4q-11 -52 -24 -106.5t-27 -103.5l-16 -60h140zM383 155h-200l-40 -155h-150l205 652h176l205 -652h-156zM345 703q-20 0 -37 7t-31.5 15.5t-27 15.5t-24.5 7q-13 0 -23 -10t-15 -35h-75q8 69 38 102.5t69 33.5q20 0 37 -7
t31.5 -15.5t27 -15.5t24.5 -7q13 0 23 10t15 35h75q-8 -69 -38 -102.5t-69 -33.5z" />
    <glyph glyph-name="Adieresis" unicode="&#xc4;" horiz-adv-x="571" 
d="M353 270l-16 60q-14 49 -26.5 104t-26.5 106h-4q-11 -52 -24 -106.5t-27 -103.5l-16 -60h140zM383 155h-200l-40 -155h-150l205 652h176l205 -652h-156zM183 700q-31 0 -50.5 20t-19.5 50t19.5 50t50.5 20t50.5 -20t19.5 -50t-19.5 -50t-50.5 -20zM381 700
q-31 0 -50.5 20t-19.5 50t19.5 50t50.5 20t50.5 -20t19.5 -50t-19.5 -50t-50.5 -20z" />
    <glyph glyph-name="Aring" unicode="&#xc5;" horiz-adv-x="571" 
d="M353 270l-16 60q-14 49 -26.5 104t-26.5 106h-4q-11 -52 -24 -106.5t-27 -103.5l-16 -60h140zM383 155h-200l-40 -155h-150l205 652h176l205 -652h-156zM282 697q-51 0 -82 26.5t-31 71.5t31 71.5t82 26.5t82 -26.5t31 -71.5t-31 -71.5t-82 -26.5zM282 752
q17 0 28.5 11.5t11.5 31.5t-11.5 31.5t-28.5 11.5t-29 -11.5t-12 -31.5t12 -31.5t29 -11.5z" />
    <glyph glyph-name="AE" unicode="&#xc6;" horiz-adv-x="844" 
d="M385 263v278h-4q-20 -48 -39.5 -95t-39.5 -90l-42 -93h125zM792 124v-124h-407v149h-177l-68 -149h-154l309 652h487v-124h-249v-131h210v-123h-210v-150h259z" />
    <glyph glyph-name="Ccedilla" unicode="&#xc7;" horiz-adv-x="580" 
d="M45 322q0 81 25 144.5t67.5 107.5t99 67t119.5 23q61 0 110.5 -25.5t82.5 -59.5l-81 -91q-25 23 -50 36t-60 13q-34 0 -63.5 -14.5t-51.5 -41.5t-34.5 -66t-12.5 -88q0 -101 43 -156.5t115 -55.5q41 0 70.5 16t53.5 42l81 -89q-41 -48 -93.5 -72t-113.5 -24
q-63 0 -119 21.5t-98 63.5t-66 104.5t-24 144.5zM310 4h86l-20 -47q26 -8 42 -25.5t16 -48.5q0 -26 -14.5 -44.5t-38.5 -31.5t-56 -19.5t-68 -8.5l-11 59q36 4 59.5 14t23.5 30q0 13 -12.5 23.5t-46.5 18.5z" />
    <glyph glyph-name="Egrave" unicode="&#xc8;" horiz-adv-x="546" 
d="M76 652h409v-124h-261v-131h222v-123h-222v-150h271v-124h-419v652zM125 822h156l81 -120h-117z" />
    <glyph glyph-name="Eacute" unicode="&#xc9;" horiz-adv-x="546" 
d="M76 652h409v-124h-261v-131h222v-123h-222v-150h271v-124h-419v652zM329 702h-117l81 120h156z" />
    <glyph glyph-name="Ecircumflex" unicode="&#xca;" horiz-adv-x="546" 
d="M76 652h409v-124h-261v-131h222v-123h-222v-150h271v-124h-419v652zM119 702l96 120h144l96 -120h-113l-53 61h-4l-53 -61h-113z" />
    <glyph glyph-name="Edieresis" unicode="&#xcb;" horiz-adv-x="546" 
d="M76 652h409v-124h-261v-131h222v-123h-222v-150h271v-124h-419v652zM188 700q-31 0 -50.5 20t-19.5 50t19.5 50t50.5 20t50.5 -20t19.5 -50t-19.5 -50t-50.5 -20zM386 700q-31 0 -50.5 20t-19.5 50t19.5 50t50.5 20t50.5 -20t19.5 -50t-19.5 -50t-50.5 -20z" />
    <glyph glyph-name="Igrave" unicode="&#xcc;" horiz-adv-x="300" 
d="M76 652h148v-652h-148v652zM-12 822h156l81 -120h-117z" />
    <glyph glyph-name="Iacute" unicode="&#xcd;" horiz-adv-x="300" 
d="M76 652h148v-652h-148v652zM192 702h-117l81 120h156z" />
    <glyph glyph-name="Icircumflex" unicode="&#xce;" horiz-adv-x="300" 
d="M76 652h148v-652h-148v652zM-18 702l96 120h144l96 -120h-113l-53 61h-4l-53 -61h-113z" />
    <glyph glyph-name="Idieresis" unicode="&#xcf;" horiz-adv-x="300" 
d="M76 652h148v-652h-148v652zM51 700q-31 0 -50.5 20t-19.5 50t19.5 50t50.5 20t50.5 -20t19.5 -50t-19.5 -50t-50.5 -20zM249 700q-31 0 -50.5 20t-19.5 50t19.5 50t50.5 20t50.5 -20t19.5 -50t-19.5 -50t-50.5 -20z" />
    <glyph glyph-name="Eth" unicode="&#xd0;" horiz-adv-x="658" 
d="M276 119q41 0 75 11t58.5 35.5t38 64.5t13.5 99q0 58 -13.5 97.5t-38 63t-58.5 33.5t-75 10h-28v-161h126v-71h-126v-182h28zM285 652q75 0 135 -19t103 -58.5t66 -100.5t23 -145t-23 -146t-65 -102.5t-100.5 -60.5t-130.5 -20h-193v301h-74v66l74 5v280h185z" />
    <glyph glyph-name="Ntilde" unicode="&#xd1;" horiz-adv-x="664" 
d="M76 652h151l170 -324l65 -144h4q-5 52 -12 116t-7 122v230h140v-652h-151l-170 325l-64 142h-4q5 -54 12 -116t7 -120v-231h-141v652zM396 703q-20 0 -37 7t-31.5 15.5t-27 15.5t-24.5 7q-13 0 -23 -10t-15 -35h-75q8 69 38 102.5t69 33.5q20 0 37 -7t31.5 -15.5
t27 -15.5t24.5 -7q13 0 23 10t15 35h75q-8 -69 -38 -102.5t-69 -33.5z" />
    <glyph glyph-name="Ograve" unicode="&#xd2;" horiz-adv-x="683" 
d="M341 -12q-66 0 -120.5 23.5t-93.5 67.5t-60.5 107t-21.5 143t21.5 142.5t60.5 105t93.5 65t120.5 22.5t120.5 -22.5t93.5 -65.5t60.5 -105.5t21.5 -141.5q0 -80 -21.5 -143t-60.5 -107t-93.5 -67.5t-120.5 -23.5zM341 115q67 0 106 57.5t39 156.5q0 98 -39 153t-106 55
q-66 0 -105.5 -55t-39.5 -153q0 -49 10.5 -88.5t29 -67.5t45.5 -43t60 -15zM179 822h156l81 -120h-117z" />
    <glyph glyph-name="Oacute" unicode="&#xd3;" horiz-adv-x="683" 
d="M341 -12q-66 0 -120.5 23.5t-93.5 67.5t-60.5 107t-21.5 143t21.5 142.5t60.5 105t93.5 65t120.5 22.5t120.5 -22.5t93.5 -65.5t60.5 -105.5t21.5 -141.5q0 -80 -21.5 -143t-60.5 -107t-93.5 -67.5t-120.5 -23.5zM341 115q67 0 106 57.5t39 156.5q0 98 -39 153t-106 55
q-66 0 -105.5 -55t-39.5 -153q0 -49 10.5 -88.5t29 -67.5t45.5 -43t60 -15zM383 702h-117l81 120h156z" />
    <glyph glyph-name="Ocircumflex" unicode="&#xd4;" horiz-adv-x="683" 
d="M341 -12q-66 0 -120.5 23.5t-93.5 67.5t-60.5 107t-21.5 143t21.5 142.5t60.5 105t93.5 65t120.5 22.5t120.5 -22.5t93.5 -65.5t60.5 -105.5t21.5 -141.5q0 -80 -21.5 -143t-60.5 -107t-93.5 -67.5t-120.5 -23.5zM341 115q67 0 106 57.5t39 156.5q0 98 -39 153t-106 55
q-66 0 -105.5 -55t-39.5 -153q0 -49 10.5 -88.5t29 -67.5t45.5 -43t60 -15zM173 702l96 120h144l96 -120h-113l-53 61h-4l-53 -61h-113z" />
    <glyph glyph-name="Otilde" unicode="&#xd5;" horiz-adv-x="683" 
d="M341 -12q-66 0 -120.5 23.5t-93.5 67.5t-60.5 107t-21.5 143t21.5 142.5t60.5 105t93.5 65t120.5 22.5t120.5 -22.5t93.5 -65.5t60.5 -105.5t21.5 -141.5q0 -80 -21.5 -143t-60.5 -107t-93.5 -67.5t-120.5 -23.5zM341 115q67 0 106 57.5t39 156.5q0 98 -39 153t-106 55
q-66 0 -105.5 -55t-39.5 -153q0 -49 10.5 -88.5t29 -67.5t45.5 -43t60 -15zM404 703q-20 0 -37 7t-31.5 15.5t-27 15.5t-24.5 7q-13 0 -23 -10t-15 -35h-75q8 69 38 102.5t69 33.5q20 0 37 -7t31.5 -15.5t27 -15.5t24.5 -7q13 0 23 10t15 35h75q-8 -69 -38 -102.5t-69 -33.5
z" />
    <glyph glyph-name="Odieresis" unicode="&#xd6;" horiz-adv-x="683" 
d="M341 -12q-66 0 -120.5 23.5t-93.5 67.5t-60.5 107t-21.5 143t21.5 142.5t60.5 105t93.5 65t120.5 22.5t120.5 -22.5t93.5 -65.5t60.5 -105.5t21.5 -141.5q0 -80 -21.5 -143t-60.5 -107t-93.5 -67.5t-120.5 -23.5zM341 115q67 0 106 57.5t39 156.5q0 98 -39 153t-106 55
q-66 0 -105.5 -55t-39.5 -153q0 -49 10.5 -88.5t29 -67.5t45.5 -43t60 -15zM242 700q-31 0 -50.5 20t-19.5 50t19.5 50t50.5 20t50.5 -20t19.5 -50t-19.5 -50t-50.5 -20zM440 700q-31 0 -50.5 20t-19.5 50t19.5 50t50.5 20t50.5 -20t19.5 -50t-19.5 -50t-50.5 -20z" />
    <glyph glyph-name="multiply" unicode="&#xd7;" horiz-adv-x="528" 
d="M48 186l142 143l-142 144l73 74l143 -144l143 144l73 -74l-142 -144l142 -143l-73 -74l-143 144l-143 -144z" />
    <glyph glyph-name="Oslash" unicode="&#xd8;" horiz-adv-x="683" 
d="M263 142q35 -27 78 -27q67 0 106 57.5t39 156.5q0 42 -8 80zM429 502q-35 35 -88 35q-66 0 -105.5 -55t-39.5 -153q0 -29 3.5 -53.5t9.5 -46.5zM583 539q54 -83 54 -210q0 -80 -21.5 -143t-60.5 -107t-93.5 -67.5t-120.5 -23.5q-94 0 -164 47l-61 -76l-77 58l69 86
q-30 43 -46.5 99.5t-16.5 126.5q0 80 21.5 142.5t60.5 105t93.5 65t120.5 22.5q103 0 176 -53l66 82l76 -59z" />
    <glyph glyph-name="Ugrave" unicode="&#xd9;" horiz-adv-x="663" 
d="M73 652h147v-365q0 -96 29 -134t84 -38t85.5 38t30.5 134v365h142v-350q0 -164 -65.5 -239t-192.5 -75t-193.5 75t-66.5 239v350zM169 822h156l81 -120h-117z" />
    <glyph glyph-name="Uacute" unicode="&#xda;" horiz-adv-x="663" 
d="M73 652h147v-365q0 -96 29 -134t84 -38t85.5 38t30.5 134v365h142v-350q0 -164 -65.5 -239t-192.5 -75t-193.5 75t-66.5 239v350zM373 702h-117l81 120h156z" />
    <glyph glyph-name="Ucircumflex" unicode="&#xdb;" horiz-adv-x="663" 
d="M73 652h147v-365q0 -96 29 -134t84 -38t85.5 38t30.5 134v365h142v-350q0 -164 -65.5 -239t-192.5 -75t-193.5 75t-66.5 239v350zM163 702l96 120h144l96 -120h-113l-53 61h-4l-53 -61h-113z" />
    <glyph glyph-name="Udieresis" unicode="&#xdc;" horiz-adv-x="663" 
d="M73 652h147v-365q0 -96 29 -134t84 -38t85.5 38t30.5 134v365h142v-350q0 -164 -65.5 -239t-192.5 -75t-193.5 75t-66.5 239v350zM232 700q-31 0 -50.5 20t-19.5 50t19.5 50t50.5 20t50.5 -20t19.5 -50t-19.5 -50t-50.5 -20zM430 700q-31 0 -50.5 20t-19.5 50t19.5 50
t50.5 20t50.5 -20t19.5 -50t-19.5 -50t-50.5 -20z" />
    <glyph glyph-name="Yacute" unicode="&#xdd;" horiz-adv-x="524" 
d="M188 232l-196 420h157l59 -150q13 -37 26 -71.5t27 -72.5h4q14 38 27.5 72.5t27.5 71.5l58 150h154l-197 -420v-232h-147v232zM304 702h-117l81 120h156z" />
    <glyph glyph-name="Thorn" unicode="&#xde;" horiz-adv-x="620" 
d="M80 652h147v-99h90q53 0 100 -10.5t81.5 -35t54.5 -64.5t20 -99q0 -58 -20.5 -99.5t-55.5 -68.5t-81.5 -40t-98.5 -13h-90v-123h-147v652zM309 240q119 0 119 104q0 51 -30.5 71.5t-88.5 20.5h-82v-196h82z" />
    <glyph glyph-name="germandbls" unicode="&#xdf;" horiz-adv-x="632" 
d="M65 487q0 48 14.5 89t43.5 71t74 47t105 17q51 0 89.5 -14t64 -37.5t38.5 -53.5t13 -62q0 -36 -12 -60.5t-27 -44t-27 -36t-12 -35.5q0 -17 13 -28.5t32.5 -22.5t42.5 -24t42.5 -31.5t32.5 -45t13 -64.5q0 -34 -11.5 -64t-35 -52t-58 -35t-79.5 -13t-80 12t-71 33l51 100
q49 -36 95 -36q26 0 40.5 13.5t14.5 34.5q0 19 -13 32.5t-32.5 25t-42.5 24t-42.5 29t-32.5 39t-13 55.5q0 29 11 50t24.5 40t24.5 39.5t11 47.5q0 29 -16.5 48.5t-47.5 19.5q-46 0 -69 -33.5t-23 -91.5v-470h-145v487z" />
    <glyph glyph-name="agrave" unicode="&#xe0;" horiz-adv-x="534" 
d="M47 138q0 78 66 122t213 59q-2 33 -20 52.5t-58 19.5q-32 0 -64 -12t-68 -33l-52 97q48 29 100.5 47t111.5 18q96 0 146.5 -54.5t50.5 -169.5v-284h-120l-11 51h-3q-32 -28 -67.5 -45.5t-77.5 -17.5q-34 0 -61 11.5t-46 32t-29.5 47.5t-10.5 59zM187 149
q0 -24 15.5 -35.5t41.5 -11.5t44 11t38 31v87q-79 -11 -109 -32t-30 -50zM132 724h142l89 -150h-107z" />
    <glyph glyph-name="aacute" unicode="&#xe1;" horiz-adv-x="534" 
d="M47 138q0 78 66 122t213 59q-2 33 -20 52.5t-58 19.5q-32 0 -64 -12t-68 -33l-52 97q48 29 100.5 47t111.5 18q96 0 146.5 -54.5t50.5 -169.5v-284h-120l-11 51h-3q-32 -28 -67.5 -45.5t-77.5 -17.5q-34 0 -61 11.5t-46 32t-29.5 47.5t-10.5 59zM187 149
q0 -24 15.5 -35.5t41.5 -11.5t44 11t38 31v87q-79 -11 -109 -32t-30 -50zM306 574h-107l89 150h142z" />
    <glyph glyph-name="acircumflex" unicode="&#xe2;" horiz-adv-x="534" 
d="M47 138q0 78 66 122t213 59q-2 33 -20 52.5t-58 19.5q-32 0 -64 -12t-68 -33l-52 97q48 29 100.5 47t111.5 18q96 0 146.5 -54.5t50.5 -169.5v-284h-120l-11 51h-3q-32 -28 -67.5 -45.5t-77.5 -17.5q-34 0 -61 11.5t-46 32t-29.5 47.5t-10.5 59zM187 149
q0 -24 15.5 -35.5t41.5 -11.5t44 11t38 31v87q-79 -11 -109 -32t-30 -50zM223 724h116l96 -150h-99l-53 79h-4l-53 -79h-99z" />
    <glyph glyph-name="atilde" unicode="&#xe3;" horiz-adv-x="534" 
d="M47 138q0 78 66 122t213 59q-2 33 -20 52.5t-58 19.5q-32 0 -64 -12t-68 -33l-52 97q48 29 100.5 47t111.5 18q96 0 146.5 -54.5t50.5 -169.5v-284h-120l-11 51h-3q-32 -28 -67.5 -45.5t-77.5 -17.5q-34 0 -61 11.5t-46 32t-29.5 47.5t-10.5 59zM187 149
q0 -24 15.5 -35.5t41.5 -11.5t44 11t38 31v87q-79 -11 -109 -32t-30 -50zM115 575q8 69 36 102t68 33q20 0 37 -7t31 -15t26.5 -15t23.5 -7q13 0 21 10t14 34h75q-8 -68 -36 -101.5t-68 -33.5q-20 0 -36.5 7t-31 15.5t-27 15.5t-23.5 7q-13 0 -21 -10t-14 -35h-75v0z" />
    <glyph glyph-name="adieresis" unicode="&#xe4;" horiz-adv-x="534" 
d="M47 138q0 78 66 122t213 59q-2 33 -20 52.5t-58 19.5q-32 0 -64 -12t-68 -33l-52 97q48 29 100.5 47t111.5 18q96 0 146.5 -54.5t50.5 -169.5v-284h-120l-11 51h-3q-32 -28 -67.5 -45.5t-77.5 -17.5q-34 0 -61 11.5t-46 32t-29.5 47.5t-10.5 59zM187 149
q0 -24 15.5 -35.5t41.5 -11.5t44 11t38 31v87q-79 -11 -109 -32t-30 -50zM182 571q-31 0 -50.5 20t-19.5 50q0 29 19.5 49t50.5 20t50.5 -20t19.5 -49q0 -30 -19.5 -50t-50.5 -20zM380 571q-31 0 -50.5 20t-19.5 50q0 29 19.5 49t50.5 20t50.5 -20t19.5 -49q0 -30 -19.5 -50
t-50.5 -20z" />
    <glyph glyph-name="aring" unicode="&#xe5;" horiz-adv-x="534" 
d="M47 138q0 78 66 122t213 59q-2 33 -20 52.5t-58 19.5q-32 0 -64 -12t-68 -33l-52 97q48 29 100.5 47t111.5 18q96 0 146.5 -54.5t50.5 -169.5v-284h-120l-11 51h-3q-32 -28 -67.5 -45.5t-77.5 -17.5q-34 0 -61 11.5t-46 32t-29.5 47.5t-10.5 59zM187 149
q0 -24 15.5 -35.5t41.5 -11.5t44 11t38 31v87q-79 -11 -109 -32t-30 -50zM281 548q-51 0 -82 27.5t-31 74.5t31 74.5t82 27.5t82 -27.5t31 -74.5t-31 -74.5t-82 -27.5zM281 603q17 0 29 13t12 34t-12 34t-29 13t-29 -13t-12 -34t12 -34t29 -13z" />
    <glyph glyph-name="ae" unicode="&#xe6;" horiz-adv-x="786" 
d="M187 149q0 -24 15.5 -35.5t41.5 -11.5t49.5 11t43.5 31q-11 31 -14 66l-1 21q-73 -11 -104 -32t-31 -50zM64 443q48 29 98.5 47t104.5 18q46 0 81 -20t57 -55q32 36 67 55.5t80 19.5q49 0 86 -18.5t61.5 -51t37 -76.5t12.5 -95q0 -20 -2 -36.5t-4 -25.5h-286
q8 -52 41 -77t78 -25q28 0 53 10t52 26l50 -95q-38 -26 -84.5 -41t-90.5 -15q-56 0 -97.5 21t-73.5 56q-53 -42 -97 -59.5t-94 -17.5q-34 0 -61 11.5t-46 32t-29.5 47.5t-10.5 58q0 79 65 123.5t211 59.5q-2 32 -18.5 51.5t-58.5 19.5q-30 0 -62 -12t-68 -33zM624 295
q0 45 -18 73t-59 28q-35 0 -59.5 -24.5t-30.5 -76.5h167z" />
    <glyph glyph-name="ccedilla" unicode="&#xe7;" horiz-adv-x="467" 
d="M36 248q0 62 21 110.5t56.5 81.5t82.5 50.5t98 17.5q46 0 83 -15.5t62 -41.5l-67 -91q-35 29 -69 29q-54 0 -85 -38t-31 -103t31.5 -103t79.5 -38q27 0 49 11t40 25l59 -93q-36 -32 -80 -47t-85 -15q-52 0 -96.5 17.5t-77.5 50.5t-52 81.5t-19 110.5zM243 4h86l-20 -47
q26 -8 42 -25.5t16 -48.5q0 -26 -14.5 -44.5t-38.5 -31.5t-56 -19.5t-68 -8.5l-11 59q36 4 59.5 14t23.5 30q0 13 -12.5 23.5t-46.5 18.5z" />
    <glyph glyph-name="egrave" unicode="&#xe8;" horiz-adv-x="518" 
d="M36 248q0 60 20 108.5t52.5 82t74.5 51.5t87 18q53 0 92.5 -18t66 -50t39.5 -75.5t13 -94.5q0 -20 -2 -36.5t-4 -25.5h-297q10 -57 44.5 -82.5t84.5 -25.5q53 0 107 33l49 -89q-38 -26 -84.5 -41t-91.5 -15q-53 0 -99 17.5t-80 51t-53 81.5t-19 110zM356 299q0 43 -19 70
t-64 27q-35 0 -61.5 -23.5t-34.5 -73.5h179zM121 724h142l89 -150h-107z" />
    <glyph glyph-name="eacute" unicode="&#xe9;" horiz-adv-x="518" 
d="M36 248q0 60 20 108.5t52.5 82t74.5 51.5t87 18q53 0 92.5 -18t66 -50t39.5 -75.5t13 -94.5q0 -20 -2 -36.5t-4 -25.5h-297q10 -57 44.5 -82.5t84.5 -25.5q53 0 107 33l49 -89q-38 -26 -84.5 -41t-91.5 -15q-53 0 -99 17.5t-80 51t-53 81.5t-19 110zM356 299q0 43 -19 70
t-64 27q-35 0 -61.5 -23.5t-34.5 -73.5h179zM295 574h-107l89 150h142z" />
    <glyph glyph-name="ecircumflex" unicode="&#xea;" horiz-adv-x="518" 
d="M36 248q0 60 20 108.5t52.5 82t74.5 51.5t87 18q53 0 92.5 -18t66 -50t39.5 -75.5t13 -94.5q0 -20 -2 -36.5t-4 -25.5h-297q10 -57 44.5 -82.5t84.5 -25.5q53 0 107 33l49 -89q-38 -26 -84.5 -41t-91.5 -15q-53 0 -99 17.5t-80 51t-53 81.5t-19 110zM356 299q0 43 -19 70
t-64 27q-35 0 -61.5 -23.5t-34.5 -73.5h179zM212 724h116l96 -150h-99l-53 79h-4l-53 -79h-99z" />
    <glyph glyph-name="edieresis" unicode="&#xeb;" horiz-adv-x="518" 
d="M36 248q0 60 20 108.5t52.5 82t74.5 51.5t87 18q53 0 92.5 -18t66 -50t39.5 -75.5t13 -94.5q0 -20 -2 -36.5t-4 -25.5h-297q10 -57 44.5 -82.5t84.5 -25.5q53 0 107 33l49 -89q-38 -26 -84.5 -41t-91.5 -15q-53 0 -99 17.5t-80 51t-53 81.5t-19 110zM356 299q0 43 -19 70
t-64 27q-35 0 -61.5 -23.5t-34.5 -73.5h179zM171 571q-31 0 -50.5 20t-19.5 50q0 29 19.5 49t50.5 20t50.5 -20t19.5 -49q0 -30 -19.5 -50t-50.5 -20zM369 571q-31 0 -50.5 20t-19.5 50q0 29 19.5 49t50.5 20t50.5 -20t19.5 -49q0 -30 -19.5 -50t-50.5 -20z" />
    <glyph glyph-name="igrave" unicode="&#xec;" horiz-adv-x="276" 
d="M65 496h147v-496h-147v496zM-11 724h142l89 -150h-107z" />
    <glyph glyph-name="iacute" unicode="&#xed;" horiz-adv-x="276" 
d="M65 496h147v-496h-147v496zM163 574h-107l89 150h142z" />
    <glyph glyph-name="icircumflex" unicode="&#xee;" horiz-adv-x="276" 
d="M65 496h147v-496h-147v496zM80 724h116l96 -150h-99l-53 79h-4l-53 -79h-99z" />
    <glyph glyph-name="idieresis" unicode="&#xef;" horiz-adv-x="276" 
d="M65 496h147v-496h-147v496zM39 571q-31 0 -50.5 20t-19.5 50q0 29 19.5 49t50.5 20t50.5 -20t19.5 -49q0 -30 -19.5 -50t-50.5 -20zM237 571q-31 0 -50.5 20t-19.5 50q0 29 19.5 49t50.5 20t50.5 -20t19.5 -49q0 -30 -19.5 -50t-50.5 -20z" />
    <glyph glyph-name="eth" unicode="&#xf0;" horiz-adv-x="560" 
d="M278 107q42 0 68.5 36.5t26.5 114.5v23t-1 22q-23 25 -47 34t-50 9q-44 0 -71.5 -29t-27.5 -89q0 -59 30.5 -90t71.5 -31zM375 601q59 -60 97 -141.5t38 -193.5q0 -60 -16.5 -111t-47 -88t-74.5 -58t-99 -21q-47 0 -88.5 17t-73.5 48t-50.5 75.5t-18.5 99.5q0 54 17 96
t45.5 71t65 44.5t75.5 15.5q29 0 57 -9.5t49 -32.5q-26 77 -85 133l-142 -71l-38 65l116 58q-20 14 -42.5 27t-47.5 26l64 89q35 -18 70 -39t68 -46l143 72l38 -65z" />
    <glyph glyph-name="ntilde" unicode="&#xf1;" horiz-adv-x="572" 
d="M65 496h120l10 -63h4q32 30 70 52.5t89 22.5q81 0 117.5 -53t36.5 -147v-308h-147v289q0 54 -14.5 74t-46.5 20q-28 0 -48 -12.5t-44 -35.5v-335h-147v496zM142 575q8 69 36 102t68 33q20 0 37 -7t31 -15t26.5 -15t23.5 -7q13 0 21 10t14 34h75q-8 -68 -36 -101.5
t-68 -33.5q-20 0 -36.5 7t-31 15.5t-27 15.5t-23.5 7q-13 0 -21 -10t-14 -35h-75v0z" />
    <glyph glyph-name="ograve" unicode="&#xf2;" horiz-adv-x="555" 
d="M36 248q0 62 20 110.5t53.5 81.5t77.5 50.5t91 17.5t90.5 -17.5t77 -50.5t53.5 -81.5t20 -110.5t-20 -110.5t-53.5 -81.5t-77 -50.5t-90.5 -17.5t-91 17.5t-77.5 50.5t-53.5 81.5t-20 110.5zM187 248q0 -65 22.5 -103t68.5 -38q45 0 68 38t23 103t-23 103t-68 38
q-46 0 -68.5 -38t-22.5 -103zM128 724h142l89 -150h-107z" />
    <glyph glyph-name="oacute" unicode="&#xf3;" horiz-adv-x="555" 
d="M36 248q0 62 20 110.5t53.5 81.5t77.5 50.5t91 17.5t90.5 -17.5t77 -50.5t53.5 -81.5t20 -110.5t-20 -110.5t-53.5 -81.5t-77 -50.5t-90.5 -17.5t-91 17.5t-77.5 50.5t-53.5 81.5t-20 110.5zM187 248q0 -65 22.5 -103t68.5 -38q45 0 68 38t23 103t-23 103t-68 38
q-46 0 -68.5 -38t-22.5 -103zM302 574h-107l89 150h142z" />
    <glyph glyph-name="ocircumflex" unicode="&#xf4;" horiz-adv-x="555" 
d="M36 248q0 62 20 110.5t53.5 81.5t77.5 50.5t91 17.5t90.5 -17.5t77 -50.5t53.5 -81.5t20 -110.5t-20 -110.5t-53.5 -81.5t-77 -50.5t-90.5 -17.5t-91 17.5t-77.5 50.5t-53.5 81.5t-20 110.5zM187 248q0 -65 22.5 -103t68.5 -38q45 0 68 38t23 103t-23 103t-68 38
q-46 0 -68.5 -38t-22.5 -103zM219 724h116l96 -150h-99l-53 79h-4l-53 -79h-99z" />
    <glyph glyph-name="otilde" unicode="&#xf5;" horiz-adv-x="555" 
d="M36 248q0 62 20 110.5t53.5 81.5t77.5 50.5t91 17.5t90.5 -17.5t77 -50.5t53.5 -81.5t20 -110.5t-20 -110.5t-53.5 -81.5t-77 -50.5t-90.5 -17.5t-91 17.5t-77.5 50.5t-53.5 81.5t-20 110.5zM187 248q0 -65 22.5 -103t68.5 -38q45 0 68 38t23 103t-23 103t-68 38
q-46 0 -68.5 -38t-22.5 -103zM111 575q8 69 36 102t68 33q20 0 37 -7t31 -15t26.5 -15t23.5 -7q13 0 21 10t14 34h75q-8 -68 -36 -101.5t-68 -33.5q-20 0 -36.5 7t-31 15.5t-27 15.5t-23.5 7q-13 0 -21 -10t-14 -35h-75v0z" />
    <glyph glyph-name="odieresis" unicode="&#xf6;" horiz-adv-x="555" 
d="M36 248q0 62 20 110.5t53.5 81.5t77.5 50.5t91 17.5t90.5 -17.5t77 -50.5t53.5 -81.5t20 -110.5t-20 -110.5t-53.5 -81.5t-77 -50.5t-90.5 -17.5t-91 17.5t-77.5 50.5t-53.5 81.5t-20 110.5zM187 248q0 -65 22.5 -103t68.5 -38q45 0 68 38t23 103t-23 103t-68 38
q-46 0 -68.5 -38t-22.5 -103zM178 571q-31 0 -50.5 20t-19.5 50q0 29 19.5 49t50.5 20t50.5 -20t19.5 -49q0 -30 -19.5 -50t-50.5 -20zM376 571q-31 0 -50.5 20t-19.5 50q0 29 19.5 49t50.5 20t50.5 -20t19.5 -49q0 -30 -19.5 -50t-50.5 -20z" />
    <glyph glyph-name="divide" unicode="&#xf7;" horiz-adv-x="528" 
d="M264 433q-35 0 -58 21.5t-23 55.5t23 55.5t58 21.5t58 -21.5t23 -55.5t-23 -55.5t-58 -21.5zM183 150q0 34 23 55.5t58 21.5t58 -21.5t23 -55.5t-23 -55.5t-58 -21.5t-58 21.5t-23 55.5zM34 382h460v-104h-460v104z" />
    <glyph glyph-name="oslash" unicode="&#xf8;" horiz-adv-x="555" 
d="M220 122q23 -20 58 -20q45 0 72 37.5t27 100.5q0 41 -7 68zM334 375q-22 19 -56 19q-46 0 -73 -37.5t-27 -100.5q0 -40 7 -67zM462 422q26 -33 41.5 -76.5t15.5 -97.5q0 -62 -20 -110.5t-53.5 -81.5t-77 -50.5t-90.5 -17.5q-74 0 -134 40l-43 -53l-55 42l47 58
q-26 32 -41.5 75.5t-15.5 97.5q0 62 20 110.5t53.5 81.5t77.5 50.5t91 17.5q35 0 69 -10t63 -29l44 54l55 -43z" />
    <glyph glyph-name="ugrave" unicode="&#xf9;" horiz-adv-x="568" 
d="M60 496h147v-289q0 -54 15 -74t47 -20q28 0 47 13t41 42v328h147v-496h-120l-11 69h-3q-32 -38 -68.5 -59.5t-87.5 -21.5q-81 0 -117.5 53t-36.5 147v308zM136 724h142l89 -150h-107z" />
    <glyph glyph-name="uacute" unicode="&#xfa;" horiz-adv-x="568" 
d="M60 496h147v-289q0 -54 15 -74t47 -20q28 0 47 13t41 42v328h147v-496h-120l-11 69h-3q-32 -38 -68.5 -59.5t-87.5 -21.5q-81 0 -117.5 53t-36.5 147v308zM310 574h-107l89 150h142z" />
    <glyph glyph-name="ucircumflex" unicode="&#xfb;" horiz-adv-x="568" 
d="M60 496h147v-289q0 -54 15 -74t47 -20q28 0 47 13t41 42v328h147v-496h-120l-11 69h-3q-32 -38 -68.5 -59.5t-87.5 -21.5q-81 0 -117.5 53t-36.5 147v308zM227 724h116l96 -150h-99l-53 79h-4l-53 -79h-99z" />
    <glyph glyph-name="udieresis" unicode="&#xfc;" horiz-adv-x="568" 
d="M60 496h147v-289q0 -54 15 -74t47 -20q28 0 47 13t41 42v328h147v-496h-120l-11 69h-3q-32 -38 -68.5 -59.5t-87.5 -21.5q-81 0 -117.5 53t-36.5 147v308zM186 571q-31 0 -50.5 20t-19.5 50q0 29 19.5 49t50.5 20t50.5 -20t19.5 -49q0 -30 -19.5 -50t-50.5 -20zM384 571
q-31 0 -50.5 20t-19.5 50q0 29 19.5 49t50.5 20t50.5 -20t19.5 -49q0 -30 -19.5 -50t-50.5 -20z" />
    <glyph glyph-name="yacute" unicode="&#xfd;" horiz-adv-x="521" 
d="M76 -72q7 -2 16 -4t17 -2q37 0 57 18t30 47l7 26l-191 483h148l71 -213q11 -34 20 -69t19 -72h4q8 35 16.5 70.5t17.5 70.5l60 213h141l-172 -501q-18 -47 -37.5 -82.5t-45 -59t-58 -35.5t-76.5 -12q-23 0 -39 2.5t-31 7.5l26 112v0zM291 574h-107l89 150h142z" />
    <glyph glyph-name="thorn" unicode="&#xfe;" horiz-adv-x="573" 
d="M212 -184h-147v885h147v-172l-4 -70q26 23 58 36t66 13q47 0 84.5 -18t63.5 -51t40 -79.5t14 -103.5q0 -64 -17.5 -113.5t-47 -84t-67 -52.5t-77.5 -18q-36 0 -63.5 12t-53.5 35l4 -74v-145zM212 140q20 -18 40 -25t39 -7q38 0 65 34.5t27 111.5q0 134 -86 134
q-43 0 -85 -45v-203z" />
    <glyph glyph-name="ydieresis" unicode="&#xff;" horiz-adv-x="521" 
d="M76 -72q7 -2 16 -4t17 -2q37 0 57 18t30 47l7 26l-191 483h148l71 -213q11 -34 20 -69t19 -72h4q8 35 16.5 70.5t17.5 70.5l60 213h141l-172 -501q-18 -47 -37.5 -82.5t-45 -59t-58 -35.5t-76.5 -12q-23 0 -39 2.5t-31 7.5l26 112v0zM167 571q-31 0 -50.5 20t-19.5 50
q0 29 19.5 49t50.5 20t50.5 -20t19.5 -49q0 -30 -19.5 -50t-50.5 -20zM365 571q-31 0 -50.5 20t-19.5 50q0 29 19.5 49t50.5 20t50.5 -20t19.5 -49q0 -30 -19.5 -50t-50.5 -20z" />
    <glyph glyph-name="Amacron" unicode="&#x100;" horiz-adv-x="571" 
d="M353 270l-16 60q-14 49 -26.5 104t-26.5 106h-4q-11 -52 -24 -106.5t-27 -103.5l-16 -60h140zM383 155h-200l-40 -155h-150l205 652h176l205 -652h-156zM141 813h282v-93h-282v93z" />
    <glyph glyph-name="amacron" unicode="&#x101;" horiz-adv-x="534" 
d="M47 138q0 78 66 122t213 59q-2 33 -20 52.5t-58 19.5q-32 0 -64 -12t-68 -33l-52 97q48 29 100.5 47t111.5 18q96 0 146.5 -54.5t50.5 -169.5v-284h-120l-11 51h-3q-32 -28 -67.5 -45.5t-77.5 -17.5q-34 0 -61 11.5t-46 32t-29.5 47.5t-10.5 59zM187 149
q0 -24 15.5 -35.5t41.5 -11.5t44 11t38 31v87q-79 -11 -109 -32t-30 -50zM143 685h276v-93h-276v93z" />
    <glyph glyph-name="Abreve" unicode="&#x102;" horiz-adv-x="571" 
d="M353 270l-16 60q-14 49 -26.5 104t-26.5 106h-4q-11 -52 -24 -106.5t-27 -103.5l-16 -60h140zM383 155h-200l-40 -155h-150l205 652h176l205 -652h-156zM282 702q-66 0 -98.5 33t-38.5 87h81q5 -20 17.5 -33t38.5 -13t38.5 13t17.5 33h81q-6 -54 -38.5 -87t-98.5 -33z
" />
    <glyph glyph-name="abreve" unicode="&#x103;" horiz-adv-x="534" 
d="M47 138q0 78 66 122t213 59q-2 33 -20 52.5t-58 19.5q-32 0 -64 -12t-68 -33l-52 97q48 29 100.5 47t111.5 18q96 0 146.5 -54.5t50.5 -169.5v-284h-120l-11 51h-3q-32 -28 -67.5 -45.5t-77.5 -17.5q-34 0 -61 11.5t-46 32t-29.5 47.5t-10.5 59zM187 149
q0 -24 15.5 -35.5t41.5 -11.5t44 11t38 31v87q-79 -11 -109 -32t-30 -50zM281 574q-35 0 -60.5 11.5t-42.5 31t-26 44.5t-10 52h82q3 -24 17 -41t40 -17t40 17t17 41h82q-1 -27 -10 -52t-26 -44.5t-42.5 -31t-60.5 -11.5z" />
    <glyph glyph-name="Aogonek" unicode="&#x104;" horiz-adv-x="571" 
d="M353 270l-16 60q-14 49 -26.5 104t-26.5 106h-4q-11 -52 -24 -106.5t-27 -103.5l-16 -60h140zM600 -188q-20 -15 -49 -25t-55 -10q-48 0 -81.5 24.5t-33.5 69.5q0 23 8 43.5t20.5 37t26.5 29t26 19.5h-39l-40 155h-200l-40 -155h-150l205 652h176l205 -652
q-21 -2 -37.5 -10.5t-28.5 -21.5t-18.5 -28t-6.5 -30q0 -19 11.5 -28.5t27.5 -9.5q12 0 21.5 4.5t17.5 9.5z" />
    <glyph glyph-name="aogonek" unicode="&#x105;" horiz-adv-x="534" 
d="M187 149q0 -24 15.5 -35.5t41.5 -11.5t44 11t38 31v87q-79 -11 -109 -32t-30 -50zM47 137q0 79 66 123t213 59q-2 33 -20 52.5t-58 19.5q-32 0 -64 -12t-68 -33l-52 97q48 29 100.5 47t111.5 18q96 0 146.5 -54.5t50.5 -169.5v-284q-49 -14 -68.5 -38t-19.5 -47
q0 -20 13 -29t29 -9q10 0 19.5 3.5t16.5 8.5l30 -66q-19 -15 -48 -24t-53 -9q-45 0 -75.5 23t-30.5 68q0 22 7 40.5t17.5 33.5t22.5 26t22 17l-13 53h-3q-32 -28 -67.5 -45.5t-77.5 -17.5q-34 0 -61 11.5t-46 32t-29.5 47.5t-10.5 58z" />
    <glyph glyph-name="Cacute" unicode="&#x106;" horiz-adv-x="580" 
d="M45 322q0 81 25 144.5t67.5 107.5t99 67t119.5 23q61 0 110.5 -25.5t82.5 -59.5l-81 -91q-25 23 -50 36t-60 13q-34 0 -63.5 -14.5t-51.5 -41.5t-34.5 -66t-12.5 -88q0 -101 43 -156.5t115 -55.5q41 0 70.5 16t53.5 42l81 -89q-41 -48 -93.5 -72t-113.5 -24
q-63 0 -119 21.5t-98 63.5t-66 104.5t-24 144.5zM384 702h-117l81 120h156z" />
    <glyph glyph-name="cacute" unicode="&#x107;" horiz-adv-x="467" 
d="M36 248q0 62 21 110.5t56.5 81.5t82.5 50.5t98 17.5q46 0 83 -15.5t62 -41.5l-67 -91q-35 29 -69 29q-54 0 -85 -38t-31 -103t31.5 -103t79.5 -38q27 0 49 11t40 25l59 -93q-36 -32 -80 -47t-85 -15q-52 0 -96.5 17.5t-77.5 50.5t-52 81.5t-19 110.5zM315 574h-107
l89 150h142z" />
    <glyph glyph-name="Ccircumflex" unicode="&#x108;" horiz-adv-x="580" 
d="M45 322q0 81 25 144.5t67.5 107.5t99 67t119.5 23q61 0 110.5 -25.5t82.5 -59.5l-81 -91q-25 23 -50 36t-60 13q-34 0 -63.5 -14.5t-51.5 -41.5t-34.5 -66t-12.5 -88q0 -101 43 -156.5t115 -55.5q41 0 70.5 16t53.5 42l81 -89q-41 -48 -93.5 -72t-113.5 -24
q-63 0 -119 21.5t-98 63.5t-66 104.5t-24 144.5zM174 702l96 120h144l96 -120h-113l-53 61h-4l-53 -61h-113z" />
    <glyph glyph-name="ccircumflex" unicode="&#x109;" horiz-adv-x="467" 
d="M36 248q0 62 21 110.5t56.5 81.5t82.5 50.5t98 17.5q46 0 83 -15.5t62 -41.5l-67 -91q-35 29 -69 29q-54 0 -85 -38t-31 -103t31.5 -103t79.5 -38q27 0 49 11t40 25l59 -93q-36 -32 -80 -47t-85 -15q-52 0 -96.5 17.5t-77.5 50.5t-52 81.5t-19 110.5zM232 724h116
l96 -150h-99l-53 79h-4l-53 -79h-99z" />
    <glyph glyph-name="Cdotaccent" unicode="&#x10a;" horiz-adv-x="580" 
d="M45 322q0 81 25 144.5t67.5 107.5t99 67t119.5 23q61 0 110.5 -25.5t82.5 -59.5l-81 -91q-25 23 -50 36t-60 13q-34 0 -63.5 -14.5t-51.5 -41.5t-34.5 -66t-12.5 -88q0 -101 43 -156.5t115 -55.5q41 0 70.5 16t53.5 42l81 -89q-41 -48 -93.5 -72t-113.5 -24
q-63 0 -119 21.5t-98 63.5t-66 104.5t-24 144.5zM342 701q-37 0 -61 21.5t-24 55.5t24 55.5t61 21.5t61 -21.5t24 -55.5t-24 -55.5t-61 -21.5z" />
    <glyph glyph-name="cdotaccent" unicode="&#x10b;" horiz-adv-x="467" 
d="M36 248q0 62 21 110.5t56.5 81.5t82.5 50.5t98 17.5q46 0 83 -15.5t62 -41.5l-67 -91q-35 29 -69 29q-54 0 -85 -38t-31 -103t31.5 -103t79.5 -38q27 0 49 11t40 25l59 -93q-36 -32 -80 -47t-85 -15q-52 0 -96.5 17.5t-77.5 50.5t-52 81.5t-19 110.5zM290 569
q-36 0 -58.5 21.5t-22.5 55.5t22.5 55.5t58.5 21.5t58.5 -21.5t22.5 -55.5t-22.5 -55.5t-58.5 -21.5z" />
    <glyph glyph-name="Ccaron" unicode="&#x10c;" horiz-adv-x="580" 
d="M45 322q0 81 25 144.5t67.5 107.5t99 67t119.5 23q61 0 110.5 -25.5t82.5 -59.5l-81 -91q-25 23 -50 36t-60 13q-34 0 -63.5 -14.5t-51.5 -41.5t-34.5 -66t-12.5 -88q0 -101 43 -156.5t115 -55.5q41 0 70.5 16t53.5 42l81 -89q-41 -48 -93.5 -72t-113.5 -24
q-63 0 -119 21.5t-98 63.5t-66 104.5t-24 144.5zM510 822l-96 -120h-144l-96 120h113l53 -61h4l53 61h113z" />
    <glyph glyph-name="ccaron" unicode="&#x10d;" horiz-adv-x="467" 
d="M36 248q0 62 21 110.5t56.5 81.5t82.5 50.5t98 17.5q46 0 83 -15.5t62 -41.5l-67 -91q-35 29 -69 29q-54 0 -85 -38t-31 -103t31.5 -103t79.5 -38q27 0 49 11t40 25l59 -93q-36 -32 -80 -47t-85 -15q-52 0 -96.5 17.5t-77.5 50.5t-52 81.5t-19 110.5zM136 724h99l53 -79
h4l53 79h99l-96 -150h-116z" />
    <glyph glyph-name="Dcaron" unicode="&#x10e;" horiz-adv-x="634" 
d="M76 652h184q75 0 135.5 -19t103.5 -58.5t66 -100.5t23 -145t-23 -146t-65 -102.5t-100.5 -60.5t-130.5 -20h-193v652zM252 119q41 0 75 11t58.5 35.5t38 64.5t13.5 99q0 58 -13.5 97.5t-38 63t-58.5 33.5t-75 10h-28v-414h28zM486 822l-96 -120h-144l-96 120h113l53 -61
h4l53 61h113z" />
    <glyph glyph-name="dcaron" unicode="&#x10f;" horiz-adv-x="614" 
d="M39 248q0 61 17.5 109t46 81.5t66 51.5t76.5 18q42 0 69 -14t53 -38l-6 76v169h147v-701h-120l-10 49h-4q-26 -26 -61 -43.5t-71 -17.5q-46 0 -83.5 18t-64 51.5t-41 81.5t-14.5 109zM190 250q0 -74 23.5 -108t66.5 -34q24 0 43.5 10t37.5 35v203q-20 18 -41 25t-41 7
q-35 0 -62 -33.5t-27 -104.5zM552 548l-6 222h95l-2 -69l-24 -153h-63z" />
    <glyph glyph-name="Dcroat" unicode="&#x110;" horiz-adv-x="658" 
d="M276 119q41 0 75 11t58.5 35.5t38 64.5t13.5 99q0 58 -13.5 97.5t-38 63t-58.5 33.5t-75 10h-28v-161h126v-71h-126v-182h28zM285 652q75 0 135 -19t103 -58.5t66 -100.5t23 -145t-23 -146t-65 -102.5t-100.5 -60.5t-130.5 -20h-193v301h-74v66l74 5v280h185z" />
    <glyph glyph-name="dcroat" unicode="&#x111;" horiz-adv-x="573" 
d="M361 336q-20 18 -41 25t-41 7q-35 0 -62 -31t-27 -97q0 -70 23.5 -101t66.5 -31q24 0 43.5 10t37.5 35v183zM576 562l-68 -5v-557h-123l-9 44h-4q-26 -25 -59 -40.5t-71 -15.5q-93 0 -148 65.5t-55 184.5q0 58 17.5 104t46 78.5t66 50t76.5 17.5q42 0 69 -14t53 -38
l-6 76v44h-149v71h149v74h147v-74h68v-65z" />
    <glyph glyph-name="Emacron" unicode="&#x112;" horiz-adv-x="546" 
d="M76 652h409v-124h-261v-131h222v-123h-222v-150h271v-124h-419v652zM146 813h282v-93h-282v93z" />
    <glyph glyph-name="emacron" unicode="&#x113;" horiz-adv-x="518" 
d="M36 248q0 60 20 108.5t52.5 82t74.5 51.5t87 18q53 0 92.5 -18t66 -50t39.5 -75.5t13 -94.5q0 -20 -2 -36.5t-4 -25.5h-297q10 -57 44.5 -82.5t84.5 -25.5q53 0 107 33l49 -89q-38 -26 -84.5 -41t-91.5 -15q-53 0 -99 17.5t-80 51t-53 81.5t-19 110zM356 299q0 43 -19 70
t-64 27q-35 0 -61.5 -23.5t-34.5 -73.5h179zM132 685h276v-93h-276v93z" />
    <glyph glyph-name="Ebreve" unicode="&#x114;" horiz-adv-x="546" 
d="M76 652h409v-124h-261v-131h222v-123h-222v-150h271v-124h-419v652zM287 702q-66 0 -98.5 33t-38.5 87h81q5 -20 17.5 -33t38.5 -13t38.5 13t17.5 33h81q-6 -54 -38.5 -87t-98.5 -33z" />
    <glyph glyph-name="ebreve" unicode="&#x115;" horiz-adv-x="518" 
d="M36 248q0 60 20 108.5t52.5 82t74.5 51.5t87 18q53 0 92.5 -18t66 -50t39.5 -75.5t13 -94.5q0 -20 -2 -36.5t-4 -25.5h-297q10 -57 44.5 -82.5t84.5 -25.5q53 0 107 33l49 -89q-38 -26 -84.5 -41t-91.5 -15q-53 0 -99 17.5t-80 51t-53 81.5t-19 110zM356 299q0 43 -19 70
t-64 27q-35 0 -61.5 -23.5t-34.5 -73.5h179zM270 574q-35 0 -60.5 11.5t-42.5 31t-26 44.5t-10 52h82q3 -24 17 -41t40 -17t40 17t17 41h82q-1 -27 -10 -52t-26 -44.5t-42.5 -31t-60.5 -11.5z" />
    <glyph glyph-name="Edotaccent" unicode="&#x116;" horiz-adv-x="546" 
d="M76 652h409v-124h-261v-131h222v-123h-222v-150h271v-124h-419v652zM287 701q-37 0 -61 21.5t-24 55.5t24 55.5t61 21.5t61 -21.5t24 -55.5t-24 -55.5t-61 -21.5z" />
    <glyph glyph-name="edotaccent" unicode="&#x117;" horiz-adv-x="518" 
d="M36 248q0 60 20 108.5t52.5 82t74.5 51.5t87 18q53 0 92.5 -18t66 -50t39.5 -75.5t13 -94.5q0 -20 -2 -36.5t-4 -25.5h-297q10 -57 44.5 -82.5t84.5 -25.5q53 0 107 33l49 -89q-38 -26 -84.5 -41t-91.5 -15q-53 0 -99 17.5t-80 51t-53 81.5t-19 110zM356 299q0 43 -19 70
t-64 27q-35 0 -61.5 -23.5t-34.5 -73.5h179zM270 569q-36 0 -58.5 21.5t-22.5 55.5t22.5 55.5t58.5 21.5t58.5 -21.5t22.5 -55.5t-22.5 -55.5t-58.5 -21.5z" />
    <glyph glyph-name="Eogonek" unicode="&#x118;" horiz-adv-x="546" 
d="M76 652h409v-124h-261v-131h222v-123h-222v-150h271v-124h-6q-17 -1 -32.5 -9t-27.5 -20.5t-19 -28.5t-7 -32q0 -20 13 -29t29 -9q10 0 19 4.5t17 9.5l34 -74q-20 -15 -49.5 -25t-55.5 -10q-24 0 -44.5 6t-36 18t-24.5 29.5t-9 40.5t7.5 43t19 36.5t25 29t26.5 20.5h-298
v652z" />
    <glyph glyph-name="eogonek" unicode="&#x119;" horiz-adv-x="518" 
d="M36 248q0 60 20 108.5t52.5 82t74.5 51.5t87 18q53 0 92.5 -18t66 -50t39.5 -75.5t13 -94.5q0 -20 -2 -36.5t-4 -25.5h-297q10 -57 44.5 -82.5t84.5 -25.5q53 0 107 33l49 -89q-33 -23 -54 -40.5t-33 -32.5t-16.5 -28t-4.5 -28q0 -20 12.5 -29t30.5 -9q10 0 18.5 3.5
t16.5 8.5l30 -66q-19 -15 -48 -24t-53 -9q-45 0 -74.5 23t-29.5 68q0 37 18.5 65t37.5 45q-9 -2 -15.5 -2.5t-11.5 -0.5q-53 0 -99 17.5t-80 51t-53 81.5t-19 110zM356 299q0 43 -19 70t-64 27q-35 0 -61.5 -23t-34.5 -74h179z" />
    <glyph glyph-name="Ecaron" unicode="&#x11a;" horiz-adv-x="546" 
d="M76 652h409v-124h-261v-131h222v-123h-222v-150h271v-124h-419v652zM455 822l-96 -120h-144l-96 120h113l53 -61h4l53 61h113z" />
    <glyph glyph-name="ecaron" unicode="&#x11b;" horiz-adv-x="518" 
d="M36 248q0 60 20 108.5t52.5 82t74.5 51.5t87 18q53 0 92.5 -18t66 -50t39.5 -75.5t13 -94.5q0 -20 -2 -36.5t-4 -25.5h-297q10 -57 44.5 -82.5t84.5 -25.5q53 0 107 33l49 -89q-38 -26 -84.5 -41t-91.5 -15q-53 0 -99 17.5t-80 51t-53 81.5t-19 110zM356 299q0 43 -19 70
t-64 27q-35 0 -61.5 -23.5t-34.5 -73.5h179zM116 724h99l53 -79h4l53 79h99l-96 -150h-116z" />
    <glyph glyph-name="Gcircumflex" unicode="&#x11c;" horiz-adv-x="636" 
d="M45 322q0 81 25.5 144.5t69 107.5t102 67t124.5 23q69 0 119.5 -26t83.5 -59l-81 -91q-25 23 -51.5 36t-68.5 13q-38 0 -69.5 -14.5t-54 -41.5t-35.5 -66t-13 -88q0 -101 45.5 -156.5t138.5 -55.5q20 0 38.5 5t30.5 15v112h-108v120h239v-300q-18 -15 -41.5 -29.5
t-51.5 -25.5t-60 -17.5t-66 -6.5q-66 0 -123.5 21.5t-100.5 63.5t-67.5 104.5t-24.5 144.5zM198 702l96 120h144l96 -120h-113l-53 61h-4l-53 -61h-113z" />
    <glyph glyph-name="gcircumflex" unicode="&#x11d;" horiz-adv-x="534" 
d="M155 -62q0 -28 30 -42.5t80 -14.5t82 17.5t32 43.5q0 23 -19.5 31t-56.5 8h-51q-26 0 -42 1.5t-28 4.5q-27 -24 -27 -49zM34 -85q0 60 71 100v4q-20 13 -33 33t-13 51q0 27 16 51.5t40 41.5v4q-26 18 -46.5 51.5t-20.5 77.5q0 45 17 78.5t45.5 56t65.5 33.5t77 11
q44 0 77 -12h181v-107h-79q7 -11 11.5 -28t4.5 -37q0 -43 -15 -74.5t-41.5 -52t-62 -30.5t-76.5 -10q-29 0 -60 10q-10 -8 -14 -16t-4 -21q0 -19 16.5 -28t58.5 -9h80q92 0 140.5 -29.5t48.5 -96.5q0 -39 -19.5 -71.5t-55.5 -56t-87 -37t-115 -13.5q-44 0 -81.5 7.5
t-66 22.5t-44.5 39t-16 57zM253 246q29 0 48.5 20.5t19.5 62.5q0 39 -19.5 59.5t-48.5 20.5t-48.5 -20t-19.5 -60q0 -42 19.5 -62.5t48.5 -20.5zM193 724h116l96 -150h-99l-53 79h-4l-53 -79h-99z" />
    <glyph glyph-name="Gbreve" unicode="&#x11e;" horiz-adv-x="636" 
d="M45 322q0 81 25.5 144.5t69 107.5t102 67t124.5 23q69 0 119.5 -26t83.5 -59l-81 -91q-25 23 -51.5 36t-68.5 13q-38 0 -69.5 -14.5t-54 -41.5t-35.5 -66t-13 -88q0 -101 45.5 -156.5t138.5 -55.5q20 0 38.5 5t30.5 15v112h-108v120h239v-300q-18 -15 -41.5 -29.5
t-51.5 -25.5t-60 -17.5t-66 -6.5q-66 0 -123.5 21.5t-100.5 63.5t-67.5 104.5t-24.5 144.5zM366 702q-66 0 -98.5 33t-38.5 87h81q5 -20 17.5 -33t38.5 -13t38.5 13t17.5 33h81q-6 -54 -38.5 -87t-98.5 -33z" />
    <glyph glyph-name="gbreve" unicode="&#x11f;" horiz-adv-x="534" 
d="M155 -62q0 -28 30 -42.5t80 -14.5t82 17.5t32 43.5q0 23 -19.5 31t-56.5 8h-51q-26 0 -42 1.5t-28 4.5q-27 -24 -27 -49zM34 -85q0 60 71 100v4q-20 13 -33 33t-13 51q0 27 16 51.5t40 41.5v4q-26 18 -46.5 51.5t-20.5 77.5q0 45 17 78.5t45.5 56t65.5 33.5t77 11
q44 0 77 -12h181v-107h-79q7 -11 11.5 -28t4.5 -37q0 -43 -15 -74.5t-41.5 -52t-62 -30.5t-76.5 -10q-29 0 -60 10q-10 -8 -14 -16t-4 -21q0 -19 16.5 -28t58.5 -9h80q92 0 140.5 -29.5t48.5 -96.5q0 -39 -19.5 -71.5t-55.5 -56t-87 -37t-115 -13.5q-44 0 -81.5 7.5
t-66 22.5t-44.5 39t-16 57zM253 246q29 0 48.5 20.5t19.5 62.5q0 39 -19.5 59.5t-48.5 20.5t-48.5 -20t-19.5 -60q0 -42 19.5 -62.5t48.5 -20.5zM251 574q-35 0 -60.5 11.5t-42.5 31t-26 44.5t-10 52h82q3 -24 17 -41t40 -17t40 17t17 41h82q-1 -27 -10 -52t-26 -44.5
t-42.5 -31t-60.5 -11.5z" />
    <glyph glyph-name="Gdotaccent" unicode="&#x120;" horiz-adv-x="636" 
d="M45 322q0 81 25.5 144.5t69 107.5t102 67t124.5 23q69 0 119.5 -26t83.5 -59l-81 -91q-25 23 -51.5 36t-68.5 13q-38 0 -69.5 -14.5t-54 -41.5t-35.5 -66t-13 -88q0 -101 45.5 -156.5t138.5 -55.5q20 0 38.5 5t30.5 15v112h-108v120h239v-300q-18 -15 -41.5 -29.5
t-51.5 -25.5t-60 -17.5t-66 -6.5q-66 0 -123.5 21.5t-100.5 63.5t-67.5 104.5t-24.5 144.5zM366 701q-37 0 -61 21.5t-24 55.5t24 55.5t61 21.5t61 -21.5t24 -55.5t-24 -55.5t-61 -21.5z" />
    <glyph glyph-name="gdotaccent" unicode="&#x121;" horiz-adv-x="534" 
d="M155 -62q0 -28 30 -42.5t80 -14.5t82 17.5t32 43.5q0 23 -19.5 31t-56.5 8h-51q-26 0 -42 1.5t-28 4.5q-27 -24 -27 -49zM34 -85q0 60 71 100v4q-20 13 -33 33t-13 51q0 27 16 51.5t40 41.5v4q-26 18 -46.5 51.5t-20.5 77.5q0 45 17 78.5t45.5 56t65.5 33.5t77 11
q44 0 77 -12h181v-107h-79q7 -11 11.5 -28t4.5 -37q0 -43 -15 -74.5t-41.5 -52t-62 -30.5t-76.5 -10q-29 0 -60 10q-10 -8 -14 -16t-4 -21q0 -19 16.5 -28t58.5 -9h80q92 0 140.5 -29.5t48.5 -96.5q0 -39 -19.5 -71.5t-55.5 -56t-87 -37t-115 -13.5q-44 0 -81.5 7.5
t-66 22.5t-44.5 39t-16 57zM253 246q29 0 48.5 20.5t19.5 62.5q0 39 -19.5 59.5t-48.5 20.5t-48.5 -20t-19.5 -60q0 -42 19.5 -62.5t48.5 -20.5zM251 569q-36 0 -58.5 21.5t-22.5 55.5t22.5 55.5t58.5 21.5t58.5 -21.5t22.5 -55.5t-22.5 -55.5t-58.5 -21.5z" />
    <glyph glyph-name="uni0122" unicode="&#x122;" horiz-adv-x="636" 
d="M45 322q0 81 25.5 144.5t69 107.5t102 67t124.5 23q69 0 119.5 -26t83.5 -59l-81 -91q-25 23 -51.5 36t-68.5 13q-38 0 -69.5 -14.5t-54 -41.5t-35.5 -66t-13 -88q0 -101 45.5 -156.5t138.5 -55.5q20 0 38.5 5t30.5 15v112h-108v120h239v-300q-18 -15 -41.5 -29.5
t-51.5 -25.5t-60 -17.5t-66 -6.5q-66 0 -123.5 21.5t-100.5 63.5t-67.5 104.5t-24.5 144.5zM326 -42q68 -7 94.5 -26.5t26.5 -57.5q0 -26 -14.5 -44.5t-38.5 -31t-56 -19t-68 -8.5l-11 59q36 4 59.5 12t23.5 25q0 14 -10.5 22.5t-33.5 14.5l28 54v0z" />
    <glyph glyph-name="uni0123" unicode="&#x123;" horiz-adv-x="534" 
d="M155 -62q0 -28 30 -42.5t80 -14.5t82 17.5t32 43.5q0 23 -19.5 31t-56.5 8h-51q-26 0 -42 1.5t-28 4.5q-27 -24 -27 -49zM34 -85q0 60 71 100v4q-20 13 -33 33t-13 51q0 27 16 51.5t40 41.5v4q-26 18 -46.5 51.5t-20.5 77.5q0 45 17 78.5t45.5 56t65.5 33.5t77 11
q44 0 77 -12h181v-107h-79q7 -11 11.5 -28t4.5 -37q0 -43 -15 -74.5t-41.5 -52t-62 -30.5t-76.5 -10q-29 0 -60 10q-10 -8 -14 -16t-4 -21q0 -19 16.5 -28t58.5 -9h80q92 0 140.5 -29.5t48.5 -96.5q0 -39 -19.5 -71.5t-55.5 -56t-87 -37t-115 -13.5q-44 0 -81.5 7.5
t-66 22.5t-44.5 39t-16 57zM253 246q29 0 48.5 20.5t19.5 62.5q0 39 -19.5 59.5t-48.5 20.5t-48.5 -20t-19.5 -60q0 -42 19.5 -62.5t48.5 -20.5zM286 545q-67 6 -94 25.5t-27 57.5q0 25 14.5 44t39 31.5t56.5 19.5t68 9l11 -59q-36 -4 -59.5 -12.5t-23.5 -25.5q0 -26 43 -36
l-28 -54v0z" />
    <glyph glyph-name="Hcircumflex" unicode="&#x124;" horiz-adv-x="672" 
d="M76 652h148v-251h225v251h147v-652h-147v272h-225v-272h-148v652zM167 702l96 120h144l96 -120h-113l-53 61h-4l-53 -61h-113z" />
    <glyph glyph-name="hcircumflex" unicode="&#x125;" horiz-adv-x="571" 
d="M65 701h147v-172l-7 -89q28 25 65 46.5t88 21.5q81 0 117.5 -53t36.5 -147v-308h-147v289q0 54 -14.5 74t-46.5 20q-28 0 -48 -12.5t-44 -35.5v-335h-147v701zM-32 750l96 120h144l96 -120h-113l-53 61h-4l-53 -61h-113z" />
    <glyph glyph-name="Hbar" unicode="&#x126;" horiz-adv-x="711" 
d="M468 486h-225v-85h225v85zM687 486h-72v-486h-147v272h-225v-272h-147v486h-72v65l72 6v95h147v-95h225v95h147v-95h72v-71z" />
    <glyph glyph-name="hbar" unicode="&#x127;" horiz-adv-x="571" 
d="M205 420q28 25 65 46.5t88 21.5q81 0 117.5 -53t36.5 -147v-288h-147v269q0 54 -14.5 74t-46.5 20q-28 0 -48 -12.5t-44 -35.5v-315h-147v556h-68v65l68 5v75h147v-74h169v-71h-169v-47z" />
    <glyph glyph-name="Itilde" unicode="&#x128;" horiz-adv-x="300" 
d="M76 652h148v-652h-148v652zM213 703q-20 0 -37 7t-31.5 15.5t-27 15.5t-24.5 7q-13 0 -23 -10t-15 -35h-75q8 69 38 102.5t69 33.5q20 0 37 -7t31.5 -15.5t27 -15.5t24.5 -7q13 0 23 10t15 35h75q-8 -69 -38 -102.5t-69 -33.5z" />
    <glyph glyph-name="itilde" unicode="&#x129;" horiz-adv-x="276" 
d="M65 496h147v-496h-147v496zM-28 575q8 69 36 102t68 33q20 0 37 -7t31 -15t26.5 -15t23.5 -7q13 0 21 10t14 34h75q-8 -68 -36 -101.5t-68 -33.5q-20 0 -36.5 7t-31 15.5t-27 15.5t-23.5 7q-13 0 -21 -10t-14 -35h-75v0z" />
    <glyph glyph-name="Imacron" unicode="&#x12a;" horiz-adv-x="300" 
d="M76 652h148v-652h-148v652zM9 813h282v-93h-282v93z" />
    <glyph glyph-name="imacron" unicode="&#x12b;" horiz-adv-x="276" 
d="M65 496h147v-496h-147v496zM0 685h276v-93h-276v93z" />
    <glyph glyph-name="uni012C" unicode="&#x12c;" horiz-adv-x="300" 
d="M76 652h148v-652h-148v652zM150 702q-66 0 -98.5 33t-38.5 87h81q5 -20 17.5 -33t38.5 -13t38.5 13t17.5 33h81q-6 -54 -38.5 -87t-98.5 -33z" />
    <glyph glyph-name="uni012D" unicode="&#x12d;" horiz-adv-x="276" 
d="M65 496h147v-496h-147v496zM138 574q-35 0 -60.5 11.5t-42.5 31t-26 44.5t-10 52h82q3 -24 17 -41t40 -17t40 17t17 41h82q-1 -27 -10 -52t-26 -44.5t-42.5 -31t-60.5 -11.5z" />
    <glyph glyph-name="Iogonek" unicode="&#x12e;" horiz-adv-x="300" 
d="M76 652h148v-652q-41 -17 -58 -40.5t-17 -49.5q0 -20 13 -29t28 -9q11 0 20.5 4.5t16.5 9.5l34 -74q-20 -15 -49.5 -25t-55.5 -10q-48 0 -81 24.5t-33 69.5q0 24 7.5 44t18.5 36.5t24 28.5t24 20h-40v652z" />
    <glyph glyph-name="iogonek" unicode="&#x12f;" horiz-adv-x="276" 
d="M65 496h147v-496q-40 -15 -56 -38.5t-16 -46.5q0 -20 13 -29t30 -9q9 0 17.5 3.5t17.5 8.5l30 -66q-19 -15 -48.5 -24t-52.5 -9q-45 0 -75.5 23t-30.5 68q0 22 6.5 40.5t16.5 33.5t21.5 26t20.5 19h-41v496zM138 569q-37 0 -61 21.5t-24 55.5t24 55t61 21t61 -21t24 -55
t-24 -55.5t-61 -21.5z" />
    <glyph glyph-name="Idotaccent" unicode="&#x130;" horiz-adv-x="300" 
d="M76 652h148v-652h-148v652zM150 701q-37 0 -61 21.5t-24 55.5t24 55.5t61 21.5t61 -21.5t24 -55.5t-24 -55.5t-61 -21.5z" />
    <glyph glyph-name="dotlessi" unicode="&#x131;" horiz-adv-x="276" 
d="M65 496h147v-496h-147v496z" />
    <glyph glyph-name="Jcircumflex" unicode="&#x134;" horiz-adv-x="507" 
d="M115 180q19 -33 42.5 -49t48.5 -16q40 0 60.5 24.5t20.5 89.5v423h148v-435q0 -47 -12.5 -89t-38 -73t-65 -49t-93.5 -18q-75 0 -126 29t-85 89zM190 702l96 120h144l96 -120h-113l-53 61h-4l-53 -61h-113z" />
    <glyph glyph-name="jcircumflex" unicode="&#x135;" horiz-adv-x="278" 
d="M66 496h147v-493q0 -41 -8.5 -77t-29 -63t-54.5 -43t-85 -16q-31 0 -51.5 4t-35.5 10l26 108q10 -3 19 -5t20 -2q29 0 40.5 19t11.5 61v497zM82 724h116l96 -150h-99l-53 79h-4l-53 -79h-99z" />
    <glyph glyph-name="uni0136" unicode="&#x136;" horiz-adv-x="613" 
d="M76 652h148v-267h3l195 267h161l-197 -260l234 -392h-162l-158 275l-76 -100v-175h-148v652zM295 -42q68 -7 94.5 -26.5t26.5 -57.5q0 -26 -14.5 -44.5t-38.5 -31t-56 -19t-68 -8.5l-11 59q36 4 59.5 12t23.5 25q0 14 -10.5 22.5t-33.5 14.5l28 54v0z" />
    <glyph glyph-name="uni0137" unicode="&#x137;" horiz-adv-x="548" 
d="M65 701h143v-402h4l157 197h160l-174 -204l187 -292h-159l-112 193l-63 -71v-122h-143v701zM259 -42q68 -7 94.5 -26.5t26.5 -57.5q0 -26 -14.5 -44.5t-38.5 -31t-56 -19t-68 -8.5l-11 59q36 4 59.5 12t23.5 25q0 14 -10.5 22.5t-33.5 14.5l28 54v0z" />
    <glyph glyph-name="kgreenlandic" unicode="&#x138;" horiz-adv-x="548" 
d="M65 496h147v-200h3l154 200h160l-170 -204l183 -292h-159l-112 189l-59 -72v-117h-147v496z" />
    <glyph glyph-name="Lacute" unicode="&#x139;" horiz-adv-x="516" 
d="M76 652h148v-528h257v-124h-405v652zM195 702h-117l81 120h156z" />
    <glyph glyph-name="lacute" unicode="&#x13a;" horiz-adv-x="286" 
d="M65 701h147v-553q0 -23 8.5 -32t17.5 -9h8.5t9.5 2l18 -109q-12 -5 -30.5 -8.5t-43.5 -3.5q-38 0 -64 12t-41.5 33.5t-22.5 52t-7 68.5v547zM183 757h-117l81 120h156z" />
    <glyph glyph-name="uni013B" unicode="&#x13b;" horiz-adv-x="516" 
d="M76 652h148v-528h257v-124h-405v652zM253 -42q68 -7 94.5 -26.5t26.5 -57.5q0 -26 -14.5 -44.5t-38.5 -31t-56 -19t-68 -8.5l-11 59q36 4 59.5 12t23.5 25q0 14 -10.5 22.5t-33.5 14.5l28 54v0z" />
    <glyph glyph-name="uni013C" unicode="&#x13c;" horiz-adv-x="286" 
d="M65 701h147v-553q0 -23 8.5 -32t17.5 -9h8.5t9.5 2l18 -109q-12 -5 -30.5 -8.5t-43.5 -3.5q-38 0 -64 12t-41.5 33.5t-22.5 52t-7 68.5v547zM154 -42q68 -7 94.5 -26.5t26.5 -57.5q0 -26 -14.5 -44.5t-38.5 -31t-56 -19t-68 -8.5l-11 59q36 4 59.5 12t23.5 25
q0 14 -10.5 22.5t-33.5 14.5l28 54v0z" />
    <glyph glyph-name="Lcaron" unicode="&#x13d;" horiz-adv-x="516" 
d="M76 652h148v-528h257v-124h-405v652zM352 511l-6 222h95l-2 -69l-24 -153h-63z" />
    <glyph glyph-name="lcaron" unicode="&#x13e;" horiz-adv-x="317" 
d="M65 701h147v-553q0 -23 8.5 -32t17.5 -9h8.5t9.5 2l18 -109q-12 -5 -30.5 -8.5t-43.5 -3.5q-38 0 -64 12t-41.5 33.5t-22.5 52t-7 68.5v547zM255 548l-6 222h95l-2 -69l-24 -153h-63z" />
    <glyph glyph-name="Ldot" unicode="&#x13f;" horiz-adv-x="516" 
d="M76 652h148v-528h257v-124h-405v652zM320 328q0 40 25.5 66.5t63.5 26.5t63.5 -26.5t25.5 -66.5q0 -39 -25.5 -65.5t-63.5 -26.5t-63.5 26.5t-25.5 65.5z" />
    <glyph glyph-name="ldot" unicode="&#x140;" horiz-adv-x="453" 
d="M65 701h147v-553q0 -23 8.5 -32t17.5 -9h8.5t9.5 2l18 -109q-12 -5 -30.5 -8.5t-43.5 -3.5q-38 0 -64 12t-41.5 33.5t-22.5 52t-7 68.5v547zM275 328q0 40 25.5 66.5t63.5 26.5t63.5 -26.5t25.5 -66.5q0 -39 -25.5 -65.5t-63.5 -26.5t-63.5 26.5t-25.5 65.5z" />
    <glyph glyph-name="Lslash" unicode="&#x141;" horiz-adv-x="523" 
d="M487 124v-124h-404v206l-73 -39v114l73 39v332h147v-260l174 95v-114l-174 -95v-154h257z" />
    <glyph glyph-name="lslash" unicode="&#x142;" horiz-adv-x="303" 
d="M222 349v-201q0 -23 8.5 -32t17.5 -9h8.5t9.5 2l18 -109q-13 -5 -31 -8.5t-43 -3.5q-38 0 -64 12t-41.5 33.5t-22.5 52t-7 68.5v122l-60 -36v117l60 37v307h147v-234l65 39v-118z" />
    <glyph glyph-name="Nacute" unicode="&#x143;" horiz-adv-x="664" 
d="M76 652h151l170 -324l65 -144h4q-5 52 -12 116t-7 122v230h140v-652h-151l-170 325l-64 142h-4q5 -54 12 -116t7 -120v-231h-141v652zM375 702h-117l81 120h156z" />
    <glyph glyph-name="nacute" unicode="&#x144;" horiz-adv-x="572" 
d="M65 496h120l10 -63h4q32 30 70 52.5t89 22.5q81 0 117.5 -53t36.5 -147v-308h-147v289q0 54 -14.5 74t-46.5 20q-28 0 -48 -12.5t-44 -35.5v-335h-147v496zM333 574h-107l89 150h142z" />
    <glyph glyph-name="uni0145" unicode="&#x145;" horiz-adv-x="664" 
d="M76 652h151l170 -324l65 -144h4q-5 52 -12 116t-7 122v230h140v-652h-151l-170 325l-64 142h-4q5 -54 12 -116t7 -120v-231h-141v652zM307 -42q68 -7 94.5 -26.5t26.5 -57.5q0 -26 -14.5 -44.5t-38.5 -31t-56 -19t-68 -8.5l-11 59q36 4 59.5 12t23.5 25q0 14 -10.5 22.5
t-33.5 14.5l28 54v0z" />
    <glyph glyph-name="uni0146" unicode="&#x146;" horiz-adv-x="572" 
d="M65 496h120l10 -63h4q32 30 70 52.5t89 22.5q81 0 117.5 -53t36.5 -147v-308h-147v289q0 54 -14.5 74t-46.5 20q-28 0 -48 -12.5t-44 -35.5v-335h-147v496zM255 -42q68 -7 94.5 -26.5t26.5 -57.5q0 -26 -14.5 -44.5t-38.5 -31t-56 -19t-68 -8.5l-11 59q36 4 59.5 12
t23.5 25q0 14 -10.5 22.5t-33.5 14.5l28 54v0z" />
    <glyph glyph-name="Ncaron" unicode="&#x147;" horiz-adv-x="664" 
d="M76 652h151l170 -324l65 -144h4q-5 52 -12 116t-7 122v230h140v-652h-151l-170 325l-64 142h-4q5 -54 12 -116t7 -120v-231h-141v652zM501 822l-96 -120h-144l-96 120h113l53 -61h4l53 61h113z" />
    <glyph glyph-name="ncaron" unicode="&#x148;" horiz-adv-x="572" 
d="M65 496h120l10 -63h4q32 30 70 52.5t89 22.5q81 0 117.5 -53t36.5 -147v-308h-147v289q0 54 -14.5 74t-46.5 20q-28 0 -48 -12.5t-44 -35.5v-335h-147v496zM154 724h99l53 -79h4l53 79h99l-96 -150h-116z" />
    <glyph glyph-name="napostrophe" unicode="&#x149;" horiz-adv-x="852" 
d="M71 416q45 23 67.5 52.5t22.5 74.5q-3 -1 -9 -1q-32 0 -54.5 19.5t-22.5 53.5q0 38 21.5 60t55.5 22q46 0 70 -34t24 -97q0 -71 -35.5 -125t-107.5 -89zM343 496h120l10 -63h4q32 30 70 52.5t89 22.5q81 0 117.5 -53t36.5 -147v-308h-147v289q0 54 -14.5 74t-46.5 20
q-28 0 -48 -12.5t-44 -35.5v-335h-147v496z" />
    <glyph glyph-name="Omacron" unicode="&#x14c;" horiz-adv-x="683" 
d="M341 -12q-66 0 -120.5 23.5t-93.5 67.5t-60.5 107t-21.5 143t21.5 142.5t60.5 105t93.5 65t120.5 22.5t120.5 -22.5t93.5 -65.5t60.5 -105.5t21.5 -141.5q0 -80 -21.5 -143t-60.5 -107t-93.5 -67.5t-120.5 -23.5zM341 115q67 0 106 57.5t39 156.5q0 98 -39 153t-106 55
q-66 0 -105.5 -55t-39.5 -153q0 -49 10.5 -88.5t29 -67.5t45.5 -43t60 -15zM200 813h282v-93h-282v93z" />
    <glyph glyph-name="omacron" unicode="&#x14d;" horiz-adv-x="555" 
d="M36 248q0 62 20 110.5t53.5 81.5t77.5 50.5t91 17.5t90.5 -17.5t77 -50.5t53.5 -81.5t20 -110.5t-20 -110.5t-53.5 -81.5t-77 -50.5t-90.5 -17.5t-91 17.5t-77.5 50.5t-53.5 81.5t-20 110.5zM187 248q0 -65 22.5 -103t68.5 -38q45 0 68 38t23 103t-23 103t-68 38
q-46 0 -68.5 -38t-22.5 -103zM139 685h276v-93h-276v93z" />
    <glyph glyph-name="uni014E" unicode="&#x14e;" horiz-adv-x="683" 
d="M341 -12q-66 0 -120.5 23.5t-93.5 67.5t-60.5 107t-21.5 143t21.5 142.5t60.5 105t93.5 65t120.5 22.5t120.5 -22.5t93.5 -65.5t60.5 -105.5t21.5 -141.5q0 -80 -21.5 -143t-60.5 -107t-93.5 -67.5t-120.5 -23.5zM341 115q67 0 106 57.5t39 156.5q0 98 -39 153t-106 55
q-66 0 -105.5 -55t-39.5 -153q0 -49 10.5 -88.5t29 -67.5t45.5 -43t60 -15zM341 702q-66 0 -98.5 33t-38.5 87h81q5 -20 17.5 -33t38.5 -13t38.5 13t17.5 33h81q-6 -54 -38.5 -87t-98.5 -33z" />
    <glyph glyph-name="uni014F" unicode="&#x14f;" horiz-adv-x="555" 
d="M36 248q0 62 20 110.5t53.5 81.5t77.5 50.5t91 17.5t90.5 -17.5t77 -50.5t53.5 -81.5t20 -110.5t-20 -110.5t-53.5 -81.5t-77 -50.5t-90.5 -17.5t-91 17.5t-77.5 50.5t-53.5 81.5t-20 110.5zM187 248q0 -65 22.5 -103t68.5 -38q45 0 68 38t23 103t-23 103t-68 38
q-46 0 -68.5 -38t-22.5 -103zM277 574q-35 0 -60.5 11.5t-42.5 31t-26 44.5t-10 52h82q3 -24 17 -41t40 -17t40 17t17 41h82q-1 -27 -10 -52t-26 -44.5t-42.5 -31t-60.5 -11.5z" />
    <glyph glyph-name="Ohungarumlaut" unicode="&#x150;" horiz-adv-x="683" 
d="M341 -12q-66 0 -120.5 23.5t-93.5 67.5t-60.5 107t-21.5 143t21.5 142.5t60.5 105t93.5 65t120.5 22.5t120.5 -22.5t93.5 -65.5t60.5 -105.5t21.5 -141.5q0 -80 -21.5 -143t-60.5 -107t-93.5 -67.5t-120.5 -23.5zM341 115q67 0 106 57.5t39 156.5q0 98 -39 153t-106 55
q-66 0 -105.5 -55t-39.5 -153q0 -49 10.5 -88.5t29 -67.5t45.5 -43t60 -15zM204 702l63 120h125l-89 -120h-99zM447 822h125l-90 -120h-99z" />
    <glyph glyph-name="ohungarumlaut" unicode="&#x151;" horiz-adv-x="555" 
d="M36 248q0 62 20 110.5t53.5 81.5t77.5 50.5t91 17.5t90.5 -17.5t77 -50.5t53.5 -81.5t20 -110.5t-20 -110.5t-53.5 -81.5t-77 -50.5t-90.5 -17.5t-91 17.5t-77.5 50.5t-53.5 81.5t-20 110.5zM187 248q0 -65 22.5 -103t68.5 -38q45 0 68 38t23 103t-23 103t-68 38
q-46 0 -68.5 -38t-22.5 -103zM220 724h117l-95 -151h-90zM391 724h117l-95 -151h-91z" />
    <glyph glyph-name="OE" unicode="&#x152;" horiz-adv-x="869" 
d="M45 329q0 84 25 145t70 100.5t106.5 58.5t133.5 19h428v-124h-248v-131h209v-123h-209v-150h258v-124h-446q-69 0 -129 20t-104 60.5t-69 102.5t-25 146zM196 329q0 -59 14 -99.5t39.5 -65t61 -35t78.5 -10.5h24v414h-24q-43 0 -78.5 -10t-61 -33.5t-39.5 -62.5t-14 -98z
" />
    <glyph glyph-name="oe" unicode="&#x153;" horiz-adv-x="822" 
d="M185 248q0 -65 22 -103t63 -38t64 38t23 103t-23 103t-64 38t-63 -38t-22 -103zM36 248q0 62 19 110.5t51 81.5t74.5 50.5t89.5 17.5q53 0 92.5 -23t68.5 -64q30 42 71 64.5t86 22.5q49 0 86 -18.5t62 -51t37.5 -76.5t12.5 -95q0 -20 -2 -36.5t-4 -25.5h-287
q8 -52 41 -77t78 -25q28 0 53 10t52 26l51 -95q-38 -26 -85 -41t-91 -15q-45 0 -87 22.5t-73 64.5q-31 -43 -70.5 -65t-94.5 -22q-48 0 -90 17.5t-73.5 50.5t-49.5 81.5t-18 110.5zM660 295q0 45 -18 73t-59 28q-35 0 -59.5 -24.5t-30.5 -76.5h167z" />
    <glyph glyph-name="Racute" unicode="&#x154;" horiz-adv-x="615" 
d="M224 352h75q58 0 88.5 24.5t30.5 72.5t-30.5 67t-88.5 19h-75v-183zM429 0l-125 235h-80v-235h-148v652h235q52 0 97.5 -10t80 -33.5t54.5 -62.5t20 -97q0 -72 -32 -118.5t-84 -69.5l147 -261h-165zM351 702h-117l81 120h156z" />
    <glyph glyph-name="racute" unicode="&#x155;" horiz-adv-x="398" 
d="M65 496h120l10 -87h4q27 51 65 75t76 24q21 0 34.5 -2.5t24.5 -7.5l-24 -127q-14 4 -26 6t-28 2q-28 0 -58.5 -20t-50.5 -71v-288h-147v496zM272 574h-107l89 150h142z" />
    <glyph glyph-name="uni0156" unicode="&#x156;" horiz-adv-x="615" 
d="M224 352h75q58 0 88.5 24.5t30.5 72.5t-30.5 67t-88.5 19h-75v-183zM429 0l-125 235h-80v-235h-148v652h235q52 0 97.5 -10t80 -33.5t54.5 -62.5t20 -97q0 -72 -32 -118.5t-84 -69.5l147 -261h-165zM290 -42q68 -7 94.5 -26.5t26.5 -57.5q0 -26 -14.5 -44.5t-38.5 -31
t-56 -19t-68 -8.5l-11 59q36 4 59.5 12t23.5 25q0 14 -10.5 22.5t-33.5 14.5l28 54v0z" />
    <glyph glyph-name="uni0157" unicode="&#x157;" horiz-adv-x="398" 
d="M65 496h120l10 -87h4q27 51 65 75t76 24q21 0 34.5 -2.5t24.5 -7.5l-24 -127q-14 4 -26 6t-28 2q-28 0 -58.5 -20t-50.5 -71v-288h-147v496zM102 -42q68 -7 94.5 -26.5t26.5 -57.5q0 -26 -14.5 -44.5t-38.5 -31t-56 -19t-68 -8.5l-11 59q36 4 59.5 12t23.5 25
q0 14 -10.5 22.5t-33.5 14.5l28 54v0z" />
    <glyph glyph-name="Rcaron" unicode="&#x158;" horiz-adv-x="615" 
d="M224 352h75q58 0 88.5 24.5t30.5 72.5t-30.5 67t-88.5 19h-75v-183zM429 0l-125 235h-80v-235h-148v652h235q52 0 97.5 -10t80 -33.5t54.5 -62.5t20 -97q0 -72 -32 -118.5t-84 -69.5l147 -261h-165zM477 822l-96 -120h-144l-96 120h113l53 -61h4l53 61h113z" />
    <glyph glyph-name="rcaron" unicode="&#x159;" horiz-adv-x="398" 
d="M65 496h120l10 -87h4q27 51 65 75t76 24q21 0 34.5 -2.5t24.5 -7.5l-24 -127q-14 4 -26 6t-28 2q-28 0 -58.5 -20t-50.5 -71v-288h-147v496zM93 724h99l53 -79h4l53 79h99l-96 -150h-116z" />
    <glyph glyph-name="Sacute" unicode="&#x15a;" horiz-adv-x="554" 
d="M119 183q35 -30 77 -49t83 -19q46 0 68.5 17t22.5 46q0 15 -6.5 26t-19 19.5t-30 16l-38.5 16.5l-84 36q-26 10 -49.5 26t-42 37.5t-29.5 50t-11 64.5q0 40 17.5 75.5t48 62t73 41.5t93.5 15q57 0 112.5 -22t97.5 -64l-74 -93q-32 25 -64.5 38.5t-71.5 13.5
q-38 0 -60.5 -15.5t-22.5 -43.5q0 -15 7.5 -25.5t21 -19t32 -16t39.5 -16.5l83 -34q60 -24 94.5 -66t34.5 -111q0 -41 -16.5 -77.5t-48 -64t-77 -44t-103.5 -16.5q-64 0 -127.5 23.5t-114.5 70.5zM332 702h-117l81 120h156z" />
    <glyph glyph-name="sacute" unicode="&#x15b;" horiz-adv-x="443" 
d="M87 149q34 -26 65 -39t63 -13q33 0 48 11t15 31q0 12 -8.5 21.5t-23 17.5t-32.5 14.5t-37 14.5q-23 9 -46 21t-42 29.5t-31 41t-12 54.5q0 34 13.5 63t38.5 49t60 31.5t78 11.5q57 0 100 -19.5t75 -43.5l-66 -88q-27 20 -53 31t-52 11q-56 0 -56 -39q0 -12 8 -20.5
t21.5 -15.5t31 -13.5t36.5 -13.5q24 -9 47.5 -20.5t43 -28.5t31.5 -41.5t12 -58.5t-13 -63t-39 -50.5t-64 -34t-88 -12.5q-49 0 -100.5 19t-89.5 50zM260 574h-107l89 150h142z" />
    <glyph glyph-name="Scircumflex" unicode="&#x15c;" horiz-adv-x="554" 
d="M119 183q35 -30 77 -49t83 -19q46 0 68.5 17t22.5 46q0 15 -6.5 26t-19 19.5t-30 16l-38.5 16.5l-84 36q-26 10 -49.5 26t-42 37.5t-29.5 50t-11 64.5q0 40 17.5 75.5t48 62t73 41.5t93.5 15q57 0 112.5 -22t97.5 -64l-74 -93q-32 25 -64.5 38.5t-71.5 13.5
q-38 0 -60.5 -15.5t-22.5 -43.5q0 -15 7.5 -25.5t21 -19t32 -16t39.5 -16.5l83 -34q60 -24 94.5 -66t34.5 -111q0 -41 -16.5 -77.5t-48 -64t-77 -44t-103.5 -16.5q-64 0 -127.5 23.5t-114.5 70.5zM122 702l96 120h144l96 -120h-113l-53 61h-4l-53 -61h-113z" />
    <glyph glyph-name="scircumflex" unicode="&#x15d;" horiz-adv-x="443" 
d="M87 149q34 -26 65 -39t63 -13q33 0 48 11t15 31q0 12 -8.5 21.5t-23 17.5t-32.5 14.5t-37 14.5q-23 9 -46 21t-42 29.5t-31 41t-12 54.5q0 34 13.5 63t38.5 49t60 31.5t78 11.5q57 0 100 -19.5t75 -43.5l-66 -88q-27 20 -53 31t-52 11q-56 0 -56 -39q0 -12 8 -20.5
t21.5 -15.5t31 -13.5t36.5 -13.5q24 -9 47.5 -20.5t43 -28.5t31.5 -41.5t12 -58.5t-13 -63t-39 -50.5t-64 -34t-88 -12.5q-49 0 -100.5 19t-89.5 50zM177 724h116l96 -150h-99l-53 79h-4l-53 -79h-99z" />
    <glyph glyph-name="uni015E" unicode="&#x15e;" horiz-adv-x="554" 
d="M119 183q35 -30 77 -49t83 -19q46 0 68.5 17t22.5 46q0 15 -6.5 26t-19 19.5t-30 16l-38.5 16.5l-84 36q-26 10 -49.5 26t-42 37.5t-29.5 50t-11 64.5q0 40 17.5 75.5t48 62t73 41.5t93.5 15q57 0 112.5 -22t97.5 -64l-74 -93q-32 25 -64.5 38.5t-71.5 13.5
q-38 0 -60.5 -15.5t-22.5 -43.5q0 -15 7.5 -25.5t21 -19t32 -16t39.5 -16.5l83 -34q60 -24 94.5 -66t34.5 -111q0 -41 -16.5 -77.5t-48 -64t-77 -44t-103.5 -16.5q-64 0 -127.5 23.5t-114.5 70.5zM240 4h86l-20 -47q26 -8 42 -25.5t16 -48.5q0 -26 -14.5 -44.5t-38.5 -31.5
t-56 -19.5t-68 -8.5l-11 59q36 4 59.5 14t23.5 30q0 13 -12.5 23.5t-46.5 18.5z" />
    <glyph glyph-name="uni015F" unicode="&#x15f;" horiz-adv-x="443" 
d="M87 149q34 -26 65 -39t63 -13q33 0 48 11t15 31q0 12 -8.5 21.5t-23 17.5t-32.5 14.5t-37 14.5q-23 9 -46 21t-42 29.5t-31 41t-12 54.5q0 34 13.5 63t38.5 49t60 31.5t78 11.5q57 0 100 -19.5t75 -43.5l-66 -88q-27 20 -53 31t-52 11q-56 0 -56 -39q0 -12 8 -20.5
t21.5 -15.5t31 -13.5t36.5 -13.5q24 -9 47.5 -20.5t43 -28.5t31.5 -41.5t12 -58.5t-13 -63t-39 -50.5t-64 -34t-88 -12.5q-49 0 -100.5 19t-89.5 50zM197 4h86l-20 -47q26 -8 42 -25.5t16 -48.5q0 -26 -14.5 -44.5t-38.5 -31.5t-56 -19.5t-68 -8.5l-11 59q36 4 59.5 14
t23.5 30q0 13 -12.5 23.5t-46.5 18.5z" />
    <glyph glyph-name="Scaron" unicode="&#x160;" horiz-adv-x="554" 
d="M119 183q35 -30 77 -49t83 -19q46 0 68.5 17t22.5 46q0 15 -6.5 26t-19 19.5t-30 16l-38.5 16.5l-84 36q-26 10 -49.5 26t-42 37.5t-29.5 50t-11 64.5q0 40 17.5 75.5t48 62t73 41.5t93.5 15q57 0 112.5 -22t97.5 -64l-74 -93q-32 25 -64.5 38.5t-71.5 13.5
q-38 0 -60.5 -15.5t-22.5 -43.5q0 -15 7.5 -25.5t21 -19t32 -16t39.5 -16.5l83 -34q60 -24 94.5 -66t34.5 -111q0 -41 -16.5 -77.5t-48 -64t-77 -44t-103.5 -16.5q-64 0 -127.5 23.5t-114.5 70.5zM458 822l-96 -120h-144l-96 120h113l53 -61h4l53 61h113z" />
    <glyph glyph-name="scaron" unicode="&#x161;" horiz-adv-x="443" 
d="M87 149q34 -26 65 -39t63 -13q33 0 48 11t15 31q0 12 -8.5 21.5t-23 17.5t-32.5 14.5t-37 14.5q-23 9 -46 21t-42 29.5t-31 41t-12 54.5q0 34 13.5 63t38.5 49t60 31.5t78 11.5q57 0 100 -19.5t75 -43.5l-66 -88q-27 20 -53 31t-52 11q-56 0 -56 -39q0 -12 8 -20.5
t21.5 -15.5t31 -13.5t36.5 -13.5q24 -9 47.5 -20.5t43 -28.5t31.5 -41.5t12 -58.5t-13 -63t-39 -50.5t-64 -34t-88 -12.5q-49 0 -100.5 19t-89.5 50zM81 724h99l53 -79h4l53 79h99l-96 -150h-116z" />
    <glyph glyph-name="uni0162" unicode="&#x162;" horiz-adv-x="555" 
d="M204 528h-180v124h506v-124h-179v-528h-147v528zM240 4h86l-20 -47q26 -8 42 -25.5t16 -48.5q0 -26 -14.5 -44.5t-38.5 -31.5t-56 -19.5t-68 -8.5l-11 59q36 4 59.5 14t23.5 30q0 13 -12.5 23.5t-46.5 18.5z" />
    <glyph glyph-name="uni0163" unicode="&#x163;" horiz-adv-x="383" 
d="M85 381h-68v109l76 6l17 132h122v-132h119v-115h-119v-199q0 -42 17.5 -60.5t46.5 -18.5q12 0 24.5 3t22.5 7l23 -107q-20 -6 -47 -12t-63 -6q-46 0 -78.5 14t-53 39t-30 60.5t-9.5 78.5v201zM201 4h86l-20 -47q26 -8 42 -25.5t16 -48.5q0 -26 -14.5 -44.5t-38.5 -31.5
t-56 -19.5t-68 -8.5l-11 59q36 4 59.5 14t23.5 30q0 13 -12.5 23.5t-46.5 18.5z" />
    <glyph glyph-name="Tcaron" unicode="&#x164;" horiz-adv-x="555" 
d="M204 528h-180v124h506v-124h-179v-528h-147v528zM445 822l-96 -120h-144l-96 120h113l53 -61h4l53 61h113z" />
    <glyph glyph-name="tcaron" unicode="&#x165;" horiz-adv-x="383" 
d="M85 381h-68v109l76 6l17 132h122v-132h119v-115h-119v-199q0 -42 17.5 -60.5t46.5 -18.5q12 0 24.5 3t22.5 7l23 -107q-20 -6 -47 -12t-63 -6q-46 0 -78.5 14t-53 39t-30 60.5t-9.5 78.5v201zM280 548l-6 222h95l-2 -69l-24 -153h-63z" />
    <glyph glyph-name="Utilde" unicode="&#x168;" horiz-adv-x="663" 
d="M73 652h147v-365q0 -96 29 -134t84 -38t85.5 38t30.5 134v365h142v-350q0 -164 -65.5 -239t-192.5 -75t-193.5 75t-66.5 239v350zM394 703q-20 0 -37 7t-31.5 15.5t-27 15.5t-24.5 7q-13 0 -23 -10t-15 -35h-75q8 69 38 102.5t69 33.5q20 0 37 -7t31.5 -15.5t27 -15.5
t24.5 -7q13 0 23 10t15 35h75q-8 -69 -38 -102.5t-69 -33.5z" />
    <glyph glyph-name="utilde" unicode="&#x169;" horiz-adv-x="568" 
d="M60 496h147v-289q0 -54 15 -74t47 -20q28 0 47 13t41 42v328h147v-496h-120l-11 69h-3q-32 -38 -68.5 -59.5t-87.5 -21.5q-81 0 -117.5 53t-36.5 147v308zM119 575q8 69 36 102t68 33q20 0 37 -7t31 -15t26.5 -15t23.5 -7q13 0 21 10t14 34h75q-8 -68 -36 -101.5
t-68 -33.5q-20 0 -36.5 7t-31 15.5t-27 15.5t-23.5 7q-13 0 -21 -10t-14 -35h-75v0z" />
    <glyph glyph-name="Umacron" unicode="&#x16a;" horiz-adv-x="663" 
d="M73 652h147v-365q0 -96 29 -134t84 -38t85.5 38t30.5 134v365h142v-350q0 -164 -65.5 -239t-192.5 -75t-193.5 75t-66.5 239v350zM190 813h282v-93h-282v93z" />
    <glyph glyph-name="umacron" unicode="&#x16b;" horiz-adv-x="568" 
d="M60 496h147v-289q0 -54 15 -74t47 -20q28 0 47 13t41 42v328h147v-496h-120l-11 69h-3q-32 -38 -68.5 -59.5t-87.5 -21.5q-81 0 -117.5 53t-36.5 147v308zM146 685h276v-93h-276v93z" />
    <glyph glyph-name="Ubreve" unicode="&#x16c;" horiz-adv-x="663" 
d="M73 652h147v-365q0 -96 29 -134t84 -38t85.5 38t30.5 134v365h142v-350q0 -164 -65.5 -239t-192.5 -75t-193.5 75t-66.5 239v350zM331 702q-66 0 -98.5 33t-38.5 87h81q5 -20 17.5 -33t38.5 -13t38.5 13t17.5 33h81q-6 -54 -38.5 -87t-98.5 -33z" />
    <glyph glyph-name="ubreve" unicode="&#x16d;" horiz-adv-x="568" 
d="M60 496h147v-289q0 -54 15 -74t47 -20q28 0 47 13t41 42v328h147v-496h-120l-11 69h-3q-32 -38 -68.5 -59.5t-87.5 -21.5q-81 0 -117.5 53t-36.5 147v308zM285 574q-35 0 -60.5 11.5t-42.5 31t-26 44.5t-10 52h82q3 -24 17 -41t40 -17t40 17t17 41h82q-1 -27 -10 -52
t-26 -44.5t-42.5 -31t-60.5 -11.5z" />
    <glyph glyph-name="Uring" unicode="&#x16e;" horiz-adv-x="663" 
d="M73 652h147v-365q0 -96 29 -134t84 -38t85.5 38t30.5 134v365h142v-350q0 -164 -65.5 -239t-192.5 -75t-193.5 75t-66.5 239v350zM331 697q-51 0 -82 26.5t-31 71.5t31 71.5t82 26.5t82 -26.5t31 -71.5t-31 -71.5t-82 -26.5zM331 752q17 0 28.5 11.5t11.5 31.5
t-11.5 31.5t-28.5 11.5t-29 -11.5t-12 -31.5t12 -31.5t29 -11.5z" />
    <glyph glyph-name="uring" unicode="&#x16f;" horiz-adv-x="568" 
d="M60 496h147v-289q0 -54 15 -74t47 -20q28 0 47 13t41 42v328h147v-496h-120l-11 69h-3q-32 -38 -68.5 -59.5t-87.5 -21.5q-81 0 -117.5 53t-36.5 147v308zM285 548q-51 0 -82 27.5t-31 74.5t31 74.5t82 27.5t82 -27.5t31 -74.5t-31 -74.5t-82 -27.5zM285 603q17 0 29 13
t12 34t-12 34t-29 13t-29 -13t-12 -34t12 -34t29 -13z" />
    <glyph glyph-name="Uhungarumlaut" unicode="&#x170;" horiz-adv-x="663" 
d="M73 652h147v-365q0 -96 29 -134t84 -38t85.5 38t30.5 134v365h142v-350q0 -164 -65.5 -239t-192.5 -75t-193.5 75t-66.5 239v350zM194 702l63 120h125l-89 -120h-99zM437 822h125l-90 -120h-99z" />
    <glyph glyph-name="uhungarumlaut" unicode="&#x171;" horiz-adv-x="568" 
d="M60 496h147v-289q0 -54 15 -74t47 -20q28 0 47 13t41 42v328h147v-496h-120l-11 69h-3q-32 -38 -68.5 -59.5t-87.5 -21.5q-81 0 -117.5 53t-36.5 147v308zM228 724h117l-95 -151h-90zM399 724h117l-95 -151h-91z" />
    <glyph glyph-name="Uogonek" unicode="&#x172;" horiz-adv-x="663" 
d="M73 652h147v-365q0 -96 29 -134t84 -38t85.5 38t30.5 134v365h142v-350q0 -69 -10 -118t-31 -84.5t-53 -60t-77 -44.5q-37 -17 -54 -41t-17 -44t13 -29t29 -9q10 0 19 4.5t17 9.5l34 -74q-20 -15 -49.5 -25t-55.5 -10q-24 0 -44.5 6t-36 18t-24.5 29.5t-9 40.5t7.5 42.5
t18 34.5t21.5 25.5t17 16.5q-114 7 -173.5 82.5t-59.5 229.5v350z" />
    <glyph glyph-name="uogonek" unicode="&#x173;" horiz-adv-x="568" 
d="M60 496h147v-289q0 -54 15 -74t47 -20q28 0 47 13t41 42v328h147v-496q-50 -15 -69 -38.5t-19 -46.5q0 -20 13 -29t29 -9q10 0 19.5 3.5t16.5 8.5l30 -66q-19 -15 -48.5 -24t-52.5 -9q-45 0 -75.5 23t-30.5 68q0 22 7 40.5t17.5 33.5t22.5 25.5t22 17.5l-13 71h-3
q-32 -38 -68.5 -59.5t-87.5 -21.5q-81 0 -117.5 53t-36.5 147v308z" />
    <glyph glyph-name="Wcircumflex" unicode="&#x174;" horiz-adv-x="812" 
d="M13 652h151l45 -305q7 -51 13.5 -102.5t13.5 -103.5h4q9 52 18.5 103.5t19.5 102.5l70 305h125l71 -305q10 -50 19.5 -101.5t19.5 -104.5h4q6 53 12.5 104t13.5 102l45 305h141l-116 -652h-185l-64 296q-8 38 -14.5 76.5t-11.5 74.5h-4q-6 -36 -12 -74.5t-14 -76.5
l-62 -296h-182zM238 702l96 120h144l96 -120h-113l-53 61h-4l-53 -61h-113z" />
    <glyph glyph-name="wcircumflex" unicode="&#x175;" horiz-adv-x="776" 
d="M24 496h146l48 -230q6 -37 11 -73t11 -74h4q7 38 13.5 75t15.5 72l55 230h127l56 -230q9 -37 16 -73t15 -74h4q7 38 11.5 74t11.5 73l47 230h136l-119 -496h-172l-45 198q-8 35 -14 70t-13 75h-4q-7 -40 -12.5 -75t-12.5 -70l-44 -198h-168zM331 724h116l96 -150h-99
l-53 79h-4l-53 -79h-99z" />
    <glyph glyph-name="Ycircumflex" unicode="&#x176;" horiz-adv-x="524" 
d="M188 232l-196 420h157l59 -150q13 -37 26 -71.5t27 -72.5h4q14 38 27.5 72.5t27.5 71.5l58 150h154l-197 -420v-232h-147v232zM94 702l96 120h144l96 -120h-113l-53 61h-4l-53 -61h-113z" />
    <glyph glyph-name="ycircumflex" unicode="&#x177;" horiz-adv-x="521" 
d="M76 -72q7 -2 16 -4t17 -2q37 0 57 18t30 47l7 26l-191 483h148l71 -213q11 -34 20 -69t19 -72h4q8 35 16.5 70.5t17.5 70.5l60 213h141l-172 -501q-18 -47 -37.5 -82.5t-45 -59t-58 -35.5t-76.5 -12q-23 0 -39 2.5t-31 7.5l26 112v0zM208 724h116l96 -150h-99l-53 79h-4
l-53 -79h-99z" />
    <glyph glyph-name="Ydieresis" unicode="&#x178;" horiz-adv-x="524" 
d="M188 232l-196 420h157l59 -150q13 -37 26 -71.5t27 -72.5h4q14 38 27.5 72.5t27.5 71.5l58 150h154l-197 -420v-232h-147v232zM163 700q-31 0 -50.5 20t-19.5 50t19.5 50t50.5 20t50.5 -20t19.5 -50t-19.5 -50t-50.5 -20zM361 700q-31 0 -50.5 20t-19.5 50t19.5 50
t50.5 20t50.5 -20t19.5 -50t-19.5 -50t-50.5 -20z" />
    <glyph glyph-name="Zacute" unicode="&#x179;" horiz-adv-x="540" 
d="M35 89l288 439h-261v124h443v-89l-288 -439h290v-124h-472v89zM324 702h-117l81 120h156z" />
    <glyph glyph-name="zacute" unicode="&#x17a;" horiz-adv-x="460" 
d="M38 79l208 302h-185v115h368v-78l-208 -303h215v-115h-398v79zM270 574h-107l89 150h142z" />
    <glyph glyph-name="Zdotaccent" unicode="&#x17b;" horiz-adv-x="540" 
d="M35 89l288 439h-261v124h443v-89l-288 -439h290v-124h-472v89zM282 701q-37 0 -61 21.5t-24 55.5t24 55.5t61 21.5t61 -21.5t24 -55.5t-24 -55.5t-61 -21.5z" />
    <glyph glyph-name="zdotaccent" unicode="&#x17c;" horiz-adv-x="460" 
d="M38 79l208 302h-185v115h368v-78l-208 -303h215v-115h-398v79zM245 569q-36 0 -58.5 21.5t-22.5 55.5t22.5 55.5t58.5 21.5t58.5 -21.5t22.5 -55.5t-22.5 -55.5t-58.5 -21.5z" />
    <glyph glyph-name="Zcaron" unicode="&#x17d;" horiz-adv-x="540" 
d="M35 89l288 439h-261v124h443v-89l-288 -439h290v-124h-472v89zM450 822l-96 -120h-144l-96 120h113l53 -61h4l53 61h113z" />
    <glyph glyph-name="zcaron" unicode="&#x17e;" horiz-adv-x="460" 
d="M38 79l208 302h-185v115h368v-78l-208 -303h215v-115h-398v79zM91 724h99l53 -79h4l53 79h99l-96 -150h-116z" />
    <glyph glyph-name="uni0180" unicode="&#x180;" horiz-adv-x="571" 
d="M212 140q20 -18 40 -25t39 -7q38 0 65 32t27 104q0 124 -86 124q-44 0 -85 -45v-183zM208 433q29 26 62.5 40.5t68.5 14.5q45 0 81 -17t61.5 -48.5t39 -76t13.5 -99.5q0 -62 -17.5 -110t-47 -81t-67 -50.5t-77.5 -17.5q-33 0 -66.5 16t-62.5 48h-4l-12 -52h-115v556h-68
v65l68 5v75h147v-74h169v-71h-169v-47z" />
    <glyph glyph-name="uni018F" unicode="&#x18f;" horiz-adv-x="699" 
d="M221 264q7 -75 44 -113t92 -38q54 0 92 38t50 113h-278zM137 583q38 35 93 58t131 23q63 0 116.5 -22.5t91.5 -66t59.5 -106t21.5 -142.5t-21.5 -143t-60.5 -106.5t-93 -66.5t-118 -23t-117 22.5t-90.5 65.5t-58.5 105.5t-21 141.5q0 11 1 23.5t2 25.5h429
q-17 167 -159 167q-46 0 -81 -17t-61 -40z" />
    <glyph glyph-name="uni0192" unicode="&#x192;" horiz-adv-x="528" 
d="M466 536q-9 3 -20 7t-26 4q-34 0 -51.5 -21.5t-21.5 -56.5l-7 -55h103v-107h-115l-23 -189q-5 -45 -16 -84t-32.5 -68t-55.5 -45.5t-85 -16.5q-29 0 -52 4t-34 11l20 109q11 -5 22 -6.5t22 -2.5q18 1 30.5 7t21.5 22t14.5 43t10.5 70l17 146h-75v101l74 6h13l5 43
q6 55 20 94.5t38 64.5t59.5 36.5t85.5 11.5q19 0 45 -5.5t41 -12.5z" />
    <glyph glyph-name="Ohorn" unicode="&#x1a0;" horiz-adv-x="683" 
d="M341 115q67 0 106 57.5t39 156.5q0 98 -39 153t-106 55q-66 0 -105.5 -55t-39.5 -153q0 -49 10.5 -88.5t29 -67.5t45.5 -43t60 -15zM625 784q11 -14 20 -34.5t9 -45.5q0 -49 -29 -77.5t-77 -42.5q42 -44 65.5 -107.5t23.5 -147.5q0 -80 -21.5 -143t-60.5 -107
t-93.5 -67.5t-120.5 -23.5t-120.5 23.5t-93.5 67.5t-60.5 107t-21.5 143t21.5 142.5t60.5 105t93.5 65t120.5 22.5q76 0 140 -31q29 7 44 20t15 41q0 14 -5 25.5t-10 20.5z" />
    <glyph glyph-name="ohorn" unicode="&#x1a1;" horiz-adv-x="555" 
d="M278 107q45 0 68 38t23 103t-23 103t-68 38q-46 0 -68.5 -38t-22.5 -103t22.5 -103t68.5 -38zM513 638q11 -14 20 -34.5t9 -45.5q0 -48 -27.5 -77t-69.5 -41q34 -33 54 -81t20 -111q0 -62 -20 -110.5t-53.5 -81.5t-77 -50.5t-90.5 -17.5t-91 17.5t-77.5 50.5t-53.5 81.5
t-20 110.5t20 110.5t53.5 81.5t77.5 50.5t91 17.5q25 0 48.5 -5t46.5 -14q24 5 39.5 18t15.5 41q0 14 -5 26t-10 20z" />
    <glyph glyph-name="Uhorn" unicode="&#x1af;" horiz-adv-x="681" 
d="M685 804q12 -14 21 -34.5t9 -45.5q0 -56 -36 -86t-88 -40v-296q0 -164 -65.5 -239t-192.5 -75t-193.5 75t-66.5 239v350h147v-365q0 -96 29 -134t84 -38t85.5 38t30.5 134v365h70q15 1 29.5 3.5t26 9t19 18t7.5 31.5q0 14 -5 25.5t-11 20.5z" />
    <glyph glyph-name="uhorn" unicode="&#x1b0;" horiz-adv-x="568" 
d="M569 648q11 -14 20 -34.5t9 -45.5q0 -48 -27 -76.5t-67 -40.5v-451h-120l-11 69h-3q-32 -38 -68.5 -59.5t-87.5 -21.5q-81 0 -117.5 53t-36.5 147v308h147v-289q0 -54 15 -74t47 -20q28 0 47 13t41 42v328h46q14 1 28.5 3.5t26 9t19 18t7.5 31.5q0 14 -5 26t-10 20z" />
    <glyph glyph-name="uni01CD" unicode="&#x1cd;" horiz-adv-x="571" 
d="M353 270l-16 60q-14 49 -26.5 104t-26.5 106h-4q-11 -52 -24 -106.5t-27 -103.5l-16 -60h140zM383 155h-200l-40 -155h-150l205 652h176l205 -652h-156zM450 822l-96 -120h-144l-96 120h113l53 -61h4l53 61h113z" />
    <glyph glyph-name="uni01CE" unicode="&#x1ce;" horiz-adv-x="534" 
d="M47 138q0 78 66 122t213 59q-2 33 -20 52.5t-58 19.5q-32 0 -64 -12t-68 -33l-52 97q48 29 100.5 47t111.5 18q96 0 146.5 -54.5t50.5 -169.5v-284h-120l-11 51h-3q-32 -28 -67.5 -45.5t-77.5 -17.5q-34 0 -61 11.5t-46 32t-29.5 47.5t-10.5 59zM187 149
q0 -24 15.5 -35.5t41.5 -11.5t44 11t38 31v87q-79 -11 -109 -32t-30 -50zM127 724h99l53 -79h4l53 79h99l-96 -150h-116z" />
    <glyph glyph-name="uni01CF" unicode="&#x1cf;" horiz-adv-x="300" 
d="M76 652h148v-652h-148v652zM318 822l-96 -120h-144l-96 120h113l53 -61h4l53 61h113z" />
    <glyph glyph-name="uni01D0" unicode="&#x1d0;" horiz-adv-x="276" 
d="M65 496h147v-496h-147v496zM-16 724h99l53 -79h4l53 79h99l-96 -150h-116z" />
    <glyph glyph-name="uni01D1" unicode="&#x1d1;" horiz-adv-x="683" 
d="M341 -12q-66 0 -120.5 23.5t-93.5 67.5t-60.5 107t-21.5 143t21.5 142.5t60.5 105t93.5 65t120.5 22.5t120.5 -22.5t93.5 -65.5t60.5 -105.5t21.5 -141.5q0 -80 -21.5 -143t-60.5 -107t-93.5 -67.5t-120.5 -23.5zM341 115q67 0 106 57.5t39 156.5q0 98 -39 153t-106 55
q-66 0 -105.5 -55t-39.5 -153q0 -49 10.5 -88.5t29 -67.5t45.5 -43t60 -15zM509 822l-96 -120h-144l-96 120h113l53 -61h4l53 61h113z" />
    <glyph glyph-name="uni01D2" unicode="&#x1d2;" horiz-adv-x="555" 
d="M36 248q0 62 20 110.5t53.5 81.5t77.5 50.5t91 17.5t90.5 -17.5t77 -50.5t53.5 -81.5t20 -110.5t-20 -110.5t-53.5 -81.5t-77 -50.5t-90.5 -17.5t-91 17.5t-77.5 50.5t-53.5 81.5t-20 110.5zM187 248q0 -65 22.5 -103t68.5 -38q45 0 68 38t23 103t-23 103t-68 38
q-46 0 -68.5 -38t-22.5 -103zM123 724h99l53 -79h4l53 79h99l-96 -150h-116z" />
    <glyph glyph-name="uni01D3" unicode="&#x1d3;" horiz-adv-x="663" 
d="M73 652h147v-365q0 -96 29 -134t84 -38t85.5 38t30.5 134v365h142v-350q0 -164 -65.5 -239t-192.5 -75t-193.5 75t-66.5 239v350zM499 822l-96 -120h-144l-96 120h113l53 -61h4l53 61h113z" />
    <glyph glyph-name="uni01D4" unicode="&#x1d4;" horiz-adv-x="568" 
d="M60 496h147v-289q0 -54 15 -74t47 -20q28 0 47 13t41 42v328h147v-496h-120l-11 69h-3q-32 -38 -68.5 -59.5t-87.5 -21.5q-81 0 -117.5 53t-36.5 147v308zM131 724h99l53 -79h4l53 79h99l-96 -150h-116z" />
    <glyph glyph-name="uni01D5" unicode="&#x1d5;" horiz-adv-x="663" 
d="M73 652h147v-365q0 -96 29 -134t84 -38t85.5 38t30.5 134v365h142v-350q0 -164 -65.5 -239t-192.5 -75t-193.5 75t-66.5 239v350zM190 941h282v-69h-282v69zM232 700q-27 0 -44.5 18t-17.5 44t17.5 43.5t44.5 17.5t44.5 -17.5t17.5 -43.5t-17.5 -44t-44.5 -18zM430 700
q-27 0 -44.5 18t-17.5 44t17.5 43.5t44.5 17.5t44.5 -17.5t17.5 -43.5t-17.5 -44t-44.5 -18z" />
    <glyph glyph-name="uni01D6" unicode="&#x1d6;" horiz-adv-x="568" 
d="M60 496h147v-289q0 -54 15 -74t47 -20q28 0 47 13t41 42v328h147v-496h-120l-11 69h-3q-32 -38 -68.5 -59.5t-87.5 -21.5q-81 0 -117.5 53t-36.5 147v308zM186 571q-27 0 -44.5 17.5t-17.5 43.5t17.5 44t44.5 18t44.5 -18t17.5 -44t-17.5 -43.5t-44.5 -17.5zM384 571
q-27 0 -44.5 17.5t-17.5 43.5t17.5 44t44.5 18t44.5 -18t17.5 -44t-17.5 -43.5t-44.5 -17.5zM147 825h276v-69h-276v69z" />
    <glyph glyph-name="uni01D7" unicode="&#x1d7;" horiz-adv-x="663" 
d="M73 652h147v-365q0 -96 29 -134t84 -38t85.5 38t30.5 134v365h142v-350q0 -164 -65.5 -239t-192.5 -75t-193.5 75t-66.5 239v350zM337 974h154l-118 -120h-117zM232 700q-27 0 -44.5 18t-17.5 44t17.5 43.5t44.5 17.5t44.5 -17.5t17.5 -43.5t-17.5 -44t-44.5 -18z
M430 700q-27 0 -44.5 18t-17.5 44t17.5 43.5t44.5 17.5t44.5 -17.5t17.5 -43.5t-17.5 -44t-44.5 -18z" />
    <glyph glyph-name="uni01D8" unicode="&#x1d8;" horiz-adv-x="568" 
d="M60 496h147v-289q0 -54 15 -74t47 -20q28 0 47 13t41 42v328h147v-496h-120l-11 69h-3q-32 -38 -68.5 -59.5t-87.5 -21.5q-81 0 -117.5 53t-36.5 147v308zM300 848h126l-115 -111h-94zM186 571q-27 0 -44.5 17.5t-17.5 43.5t17.5 44t44.5 18t44.5 -18t17.5 -44
t-17.5 -43.5t-44.5 -17.5zM384 571q-27 0 -44.5 17.5t-17.5 43.5t17.5 44t44.5 18t44.5 -18t17.5 -44t-17.5 -43.5t-44.5 -17.5z" />
    <glyph glyph-name="uni01D9" unicode="&#x1d9;" horiz-adv-x="663" 
d="M73 652h147v-365q0 -96 29 -134t84 -38t85.5 38t30.5 134v365h142v-350q0 -164 -65.5 -239t-192.5 -75t-193.5 75t-66.5 239v350zM232 700q-27 0 -44.5 18t-17.5 44t17.5 43.5t44.5 17.5t44.5 -17.5t17.5 -43.5t-17.5 -44t-44.5 -18zM430 700q-27 0 -44.5 18t-17.5 44
t17.5 43.5t44.5 17.5t44.5 -17.5t17.5 -43.5t-17.5 -44t-44.5 -18zM499 974l-96 -120h-144l-96 120h113l53 -60h4l53 60h113z" />
    <glyph glyph-name="uni01DA" unicode="&#x1da;" horiz-adv-x="568" 
d="M60 496h147v-289q0 -54 15 -74t47 -20q28 0 47 13t41 42v328h147v-496h-120l-11 69h-3q-32 -38 -68.5 -59.5t-87.5 -21.5q-81 0 -117.5 53t-36.5 147v308zM137 848h100l46 -58h4l46 58h100l-86 -111h-124zM186 571q-27 0 -44.5 17.5t-17.5 43.5t17.5 44t44.5 18t44.5 -18
t17.5 -44t-17.5 -43.5t-44.5 -17.5zM384 571q-27 0 -44.5 17.5t-17.5 43.5t17.5 44t44.5 18t44.5 -18t17.5 -44t-17.5 -43.5t-44.5 -17.5z" />
    <glyph glyph-name="uni01DB" unicode="&#x1db;" horiz-adv-x="663" 
d="M73 652h147v-365q0 -96 29 -134t84 -38t85.5 38t30.5 134v365h142v-350q0 -164 -65.5 -239t-192.5 -75t-193.5 75t-66.5 239v350zM406 854h-117l-118 120h154zM430 700q-27 0 -44.5 18t-17.5 44t17.5 43.5t44.5 17.5t44.5 -17.5t17.5 -43.5t-17.5 -44t-44.5 -18zM232 700
q-27 0 -44.5 18t-17.5 44t17.5 43.5t44.5 17.5t44.5 -17.5t17.5 -43.5t-17.5 -44t-44.5 -18z" />
    <glyph glyph-name="uni01DC" unicode="&#x1dc;" horiz-adv-x="568" 
d="M60 496h147v-289q0 -54 15 -74t47 -20q28 0 47 13t41 42v328h147v-496h-120l-11 69h-3q-32 -38 -68.5 -59.5t-87.5 -21.5q-81 0 -117.5 53t-36.5 147v308zM353 737h-94l-115 111h126zM384 571q-27 0 -44.5 17.5t-17.5 43.5t17.5 44t44.5 18t44.5 -18t17.5 -44
t-17.5 -43.5t-44.5 -17.5zM186 571q-27 0 -44.5 17.5t-17.5 43.5t17.5 44t44.5 18t44.5 -18t17.5 -44t-17.5 -43.5t-44.5 -17.5z" />
    <glyph glyph-name="Gcaron" unicode="&#x1e6;" horiz-adv-x="636" 
d="M45 322q0 81 25.5 144.5t69 107.5t102 67t124.5 23q69 0 119.5 -26t83.5 -59l-81 -91q-25 23 -51.5 36t-68.5 13q-38 0 -69.5 -14.5t-54 -41.5t-35.5 -66t-13 -88q0 -101 45.5 -156.5t138.5 -55.5q20 0 38.5 5t30.5 15v112h-108v120h239v-300q-18 -15 -41.5 -29.5
t-51.5 -25.5t-60 -17.5t-66 -6.5q-66 0 -123.5 21.5t-100.5 63.5t-67.5 104.5t-24.5 144.5zM534 822l-96 -120h-144l-96 120h113l53 -61h4l53 61h113z" />
    <glyph glyph-name="gcaron" unicode="&#x1e7;" horiz-adv-x="534" 
d="M155 -62q0 -28 30 -42.5t80 -14.5t82 17.5t32 43.5q0 23 -19.5 31t-56.5 8h-51q-26 0 -42 1.5t-28 4.5q-27 -24 -27 -49zM34 -85q0 60 71 100v4q-20 13 -33 33t-13 51q0 27 16 51.5t40 41.5v4q-26 18 -46.5 51.5t-20.5 77.5q0 45 17 78.5t45.5 56t65.5 33.5t77 11
q44 0 77 -12h181v-107h-79q7 -11 11.5 -28t4.5 -37q0 -43 -15 -74.5t-41.5 -52t-62 -30.5t-76.5 -10q-29 0 -60 10q-10 -8 -14 -16t-4 -21q0 -19 16.5 -28t58.5 -9h80q92 0 140.5 -29.5t48.5 -96.5q0 -39 -19.5 -71.5t-55.5 -56t-87 -37t-115 -13.5q-44 0 -81.5 7.5
t-66 22.5t-44.5 39t-16 57zM253 246q29 0 48.5 20.5t19.5 62.5q0 39 -19.5 59.5t-48.5 20.5t-48.5 -20t-19.5 -60q0 -42 19.5 -62.5t48.5 -20.5zM97 724h99l53 -79h4l53 79h99l-96 -150h-116z" />
    <glyph glyph-name="uni01EA" unicode="&#x1ea;" horiz-adv-x="683" 
d="M252 -129q0 39 20.5 69t43.5 50q-62 4 -112.5 29.5t-85.5 69t-54 104.5t-19 136q0 80 21.5 142.5t60.5 105t93.5 65t120.5 22.5t120.5 -22.5t93.5 -65.5t60.5 -105.5t21.5 -141.5q0 -69 -14 -121.5t-41 -92.5t-65.5 -69t-86.5 -51q-37 -17 -53.5 -40.5t-16.5 -44.5
q0 -20 13 -29t29 -9q10 0 19 4.5t17 9.5l33 -74q-19 -15 -48.5 -25t-55.5 -10q-48 0 -81.5 24.5t-33.5 69.5zM341 115q67 0 106 57.5t39 156.5q0 98 -39 153t-106 55q-66 0 -105.5 -55t-39.5 -153q0 -49 10.5 -88.5t29 -67.5t45.5 -43t60 -15z" />
    <glyph glyph-name="uni01EB" unicode="&#x1eb;" horiz-adv-x="555" 
d="M191 -119q0 19 5.5 35.5t13.5 30.5t17.5 24.5t18.5 18.5q-42 5 -80.5 25t-67 53t-45.5 78t-17 102q0 62 20 110.5t53.5 81.5t77.5 50.5t91 17.5t90.5 -17.5t77 -50.5t53.5 -81.5t20 -110.5q0 -50 -11.5 -88t-33 -68t-51.5 -52.5t-66 -39.5q-37 -17 -52 -40t-15 -45
q0 -20 13 -29t29 -9q10 0 19 3.5t17 8.5l30 -66q-19 -15 -48 -24t-53 -9q-45 0 -75.5 23t-30.5 68zM187 248q0 -65 22.5 -103t68.5 -38q45 0 68 38t23 103t-23 103t-68 38q-46 0 -68.5 -38t-22.5 -103z" />
    <glyph glyph-name="uni0218" unicode="&#x218;" horiz-adv-x="554" 
d="M119 183q35 -30 77 -49t83 -19q46 0 68.5 17t22.5 46q0 15 -6.5 26t-19 19.5t-30 16l-38.5 16.5l-84 36q-26 10 -49.5 26t-42 37.5t-29.5 50t-11 64.5q0 40 17.5 75.5t48 62t73 41.5t93.5 15q57 0 112.5 -22t97.5 -64l-74 -93q-32 25 -64.5 38.5t-71.5 13.5
q-38 0 -60.5 -15.5t-22.5 -43.5q0 -15 7.5 -25.5t21 -19t32 -16t39.5 -16.5l83 -34q60 -24 94.5 -66t34.5 -111q0 -41 -16.5 -77.5t-48 -64t-77 -44t-103.5 -16.5q-64 0 -127.5 23.5t-114.5 70.5zM243 -42q68 -7 94.5 -26.5t26.5 -57.5q0 -26 -14.5 -44.5t-38.5 -31t-56 -19
t-68 -8.5l-11 59q36 4 59.5 12t23.5 25q0 14 -10.5 22.5t-33.5 14.5l28 54v0z" />
    <glyph glyph-name="uni0219" unicode="&#x219;" horiz-adv-x="443" 
d="M87 149q34 -26 65 -39t63 -13q33 0 48 11t15 31q0 12 -8.5 21.5t-23 17.5t-32.5 14.5t-37 14.5q-23 9 -46 21t-42 29.5t-31 41t-12 54.5q0 34 13.5 63t38.5 49t60 31.5t78 11.5q57 0 100 -19.5t75 -43.5l-66 -88q-27 20 -53 31t-52 11q-56 0 -56 -39q0 -12 8 -20.5
t21.5 -15.5t31 -13.5t36.5 -13.5q24 -9 47.5 -20.5t43 -28.5t31.5 -41.5t12 -58.5t-13 -63t-39 -50.5t-64 -34t-88 -12.5q-49 0 -100.5 19t-89.5 50zM196 -42q68 -7 94.5 -26.5t26.5 -57.5q0 -26 -14.5 -44.5t-38.5 -31t-56 -19t-68 -8.5l-11 59q36 4 59.5 12t23.5 25
q0 14 -10.5 22.5t-33.5 14.5l28 54v0z" />
    <glyph glyph-name="uni021A" unicode="&#x21a;" horiz-adv-x="555" 
d="M204 528h-180v124h506v-124h-179v-528h-147v528zM241 -42q68 -7 94.5 -26.5t26.5 -57.5q0 -26 -14.5 -44.5t-38.5 -31t-56 -19t-68 -8.5l-11 59q36 4 59.5 12t23.5 25q0 14 -10.5 22.5t-33.5 14.5l28 54v0z" />
    <glyph glyph-name="uni021B" unicode="&#x21b;" horiz-adv-x="383" 
d="M85 381h-68v109l76 6l17 132h122v-132h119v-115h-119v-199q0 -42 17.5 -60.5t46.5 -18.5q12 0 24.5 3t22.5 7l23 -107q-20 -6 -47 -12t-63 -6q-46 0 -78.5 14t-53 39t-30 60.5t-9.5 78.5v201zM199 -42q68 -7 94.5 -26.5t26.5 -57.5q0 -26 -14.5 -44.5t-38.5 -31t-56 -19
t-68 -8.5l-11 59q36 4 59.5 12t23.5 25q0 14 -10.5 22.5t-33.5 14.5l28 54v0z" />
    <glyph glyph-name="uni0237" unicode="&#x237;" horiz-adv-x="278" 
d="M66 496h147v-493q0 -41 -8.5 -77t-29 -63t-54.5 -43t-85 -16q-31 0 -51.5 4t-35.5 10l26 108q10 -3 19 -5t20 -2q29 0 40.5 19t11.5 61v497z" />
    <glyph glyph-name="uni0243" unicode="&#x243;" horiz-adv-x="628" 
d="M330 105q60 0 92.5 27t32.5 79t-32 75.5t-93 23.5h-82v-64h126v-71h-126v-70h82zM248 397h69q54 0 80 21.5t26 59.5q0 36 -27 52t-78 16h-70v-149zM454 362q70 -14 106 -53.5t36 -108.5q0 -52 -19.5 -89.5t-54 -62t-81 -36.5t-99.5 -12h-242v175h-74v65l74 6v406h224
q51 0 94.5 -8t76 -26.5t51 -48.5t18.5 -74q0 -41 -26 -78t-84 -51v-4z" />
    <glyph glyph-name="uni0251" unicode="&#x251;" horiz-adv-x="573" 
d="M190 250q0 -74 23.5 -108t66.5 -34q24 0 43.5 10t37.5 35v203q-20 18 -41 25t-41 7q-35 0 -62 -33.5t-27 -104.5zM39 248q0 61 18 109t47.5 81.5t67 51.5t76.5 18q38 0 69 -14.5t60 -46.5h4l12 49h115v-496h-120l-10 49h-4q-26 -26 -61 -43.5t-71 -17.5q-46 0 -83.5 18
t-64 51.5t-41 81.5t-14.5 109z" />
    <glyph glyph-name="uni0259" unicode="&#x259;" horiz-adv-x="518" 
d="M36 228q0 20 2 36.5t4 25.5h297q-8 55 -37.5 80.5t-76.5 25.5q-29 0 -55.5 -8.5t-52.5 -24.5l-49 89q41 26 88 41t94 15q49 0 91.5 -18t73.5 -51.5t49 -81.5t18 -109q0 -60 -19 -108.5t-51 -82t-74.5 -51.5t-88.5 -18q-53 0 -93 18t-66.5 50.5t-40 76.5t-13.5 95z
M162 199q0 -45 19.5 -72t64.5 -27q36 0 61.5 23t33.5 76h-179z" />
    <glyph glyph-name="uni0261" unicode="&#x261;" horiz-adv-x="583" 
d="M124 -42q35 -20 71 -28.5t66 -8.5q55 0 78 22.5t27 57.5l4 62q-25 -23 -56.5 -36.5t-66.5 -13.5q-46 0 -83.5 18t-64 50.5t-41 77t-14.5 98.5q0 57 18 103.5t47.5 79t67 50.5t76.5 18q38 0 68.5 -13.5t58.5 -44.5h4l11 46h118v-491q0 -97 -65.5 -148t-186.5 -51
q-41 0 -91.5 13.5t-93.5 41.5zM285 131q24 0 42.5 10.5t38.5 36.5v178q-20 18 -41 25t-41 7q-37 0 -64 -33t-27 -96q0 -62 24.5 -95t67.5 -33z" />
    <glyph glyph-name="h.sups" unicode="&#x2b0;" horiz-adv-x="384" 
d="M42 722h104v-112l-7 -61q17 18 43.5 33t59.5 15q57 0 80.5 -36.5t23.5 -98.5v-202h-104v190q0 30 -7 45t-33 15q-15 0 -28 -8t-28 -23v-219h-104v462z" />
    <glyph glyph-name="j.sups" unicode="&#x2b2;" horiz-adv-x="190" 
d="M27 124q-23 0 -36 2.5t-24 5.5l18 78q10 -5 26 -5q20 0 26.5 12t6.5 39v333h104v-329q0 -27 -6 -52t-20 -43.5t-37.5 -29.5t-57.5 -11zM96 634q-26 0 -42.5 15t-16.5 38t16.5 37.5t42.5 14.5t42.5 -14.5t16.5 -37.5t-16.5 -38t-42.5 -15z" />
    <glyph glyph-name="r.sups" unicode="&#x2b3;" horiz-adv-x="272" 
d="M42 589h84l8 -57h2q20 33 44.5 49t49.5 16q15 0 25 -2t17 -5l-18 -89q-7 2 -16.5 3.5t-19.5 1.5q-19 0 -38.5 -13t-33.5 -45v-188h-104v329z" />
    <glyph glyph-name="w.sups" unicode="&#x2b7;" horiz-adv-x="523" 
d="M16 589h103l29 -148l15 -99h3l18 99l38 148h83l40 -148l19 -99h3l16 99l29 148h95l-78 -329h-121l-29 126l-16 91h-2l-16 -91l-28 -126h-119z" />
    <glyph glyph-name="y.sups" unicode="&#x2b8;" horiz-adv-x="353" 
d="M52 220q14 -5 23 -5q23 0 37 12t20 29l5 15l-129 318h104l45 -136q8 -25 13 -46.5t12 -47.5h4q5 24 11 47t12 47l37 136h99l-112 -328q-12 -32 -26 -55t-31 -39t-40 -23.5t-53 -7.5q-15 0 -26.5 1.5t-22.5 4.5l18 78v0z" />
    <glyph glyph-name="uni02BB" unicode="&#x2bb;" horiz-adv-x="300" 
d="M229 619q-45 -23 -67.5 -52.5t-22.5 -74.5q3 1 10 1q32 0 54.5 -19.5t22.5 -53.5q0 -38 -22 -60t-55 -22q-47 0 -70.5 34.5t-23.5 96.5q0 71 35 125t107 89z" />
    <glyph glyph-name="uni02BC" unicode="&#x2bc;" horiz-adv-x="300" 
d="M71 416q45 23 67.5 52.5t22.5 74.5q-3 -1 -9 -1q-32 0 -54.5 19.5t-22.5 53.5q0 38 21.5 60t55.5 22q46 0 70 -34t24 -97q0 -71 -35.5 -125t-107.5 -89z" />
    <glyph glyph-name="uni02BE" unicode="&#x2be;" horiz-adv-x="164" 
d="M26 602q32 0 44.5 13.5t12.5 34.5t-12.5 34.5t-44.5 13.5v54q66 3 97.5 -26t31.5 -76t-31.5 -76t-97.5 -26v54z" />
    <glyph glyph-name="uni02BF" unicode="&#x2bf;" horiz-adv-x="168" 
d="M142 698q-32 0 -44.5 -13.5t-12.5 -34.5t12.5 -34.5t44.5 -13.5v-54q-66 -3 -97.5 26t-31.5 76t31.5 76t97.5 26v-54z" />
    <glyph glyph-name="circumflex" unicode="&#x2c6;" horiz-adv-x="555" 
d="M220 724h116l96 -150h-99l-53 79h-4l-53 -79h-99z" />
    <glyph glyph-name="caron" unicode="&#x2c7;" horiz-adv-x="555" 
d="M124 724h99l53 -79h4l53 79h99l-96 -150h-116z" />
    <glyph glyph-name="uni02C8" unicode="&#x2c8;" horiz-adv-x="147" 
d="M15 740h118l-6 -200h-106z" />
    <glyph glyph-name="uni02C9" unicode="&#x2c9;" horiz-adv-x="308" 
d="M16 685h276v-93h-276v93z" />
    <glyph glyph-name="uni02CA" unicode="&#x2ca;" horiz-adv-x="236" 
d="M143 574h-107l89 150h142z" />
    <glyph glyph-name="uni02CB" unicode="&#x2cb;" horiz-adv-x="236" 
d="M-31 724h142l89 -150h-107z" />
    <glyph glyph-name="uni02CC" unicode="&#x2cc;" horiz-adv-x="147" 
d="M127 -64l6 -201h-118l6 201h106z" />
    <glyph glyph-name="breve" unicode="&#x2d8;" horiz-adv-x="555" 
d="M278 574q-35 0 -60.5 11.5t-42.5 31t-26 44.5t-10 52h82q3 -24 17 -41t40 -17t40 17t17 41h82q-1 -27 -10 -52t-26 -44.5t-42.5 -31t-60.5 -11.5z" />
    <glyph glyph-name="dotaccent" unicode="&#x2d9;" horiz-adv-x="555" 
d="M278 569q-36 0 -58.5 21.5t-22.5 55.5t22.5 55.5t58.5 21.5t58.5 -21.5t22.5 -55.5t-22.5 -55.5t-58.5 -21.5z" />
    <glyph glyph-name="ring" unicode="&#x2da;" horiz-adv-x="555" 
d="M278 548q-51 0 -82 27.5t-31 74.5t31 74.5t82 27.5t82 -27.5t31 -74.5t-31 -74.5t-82 -27.5zM278 603q17 0 29 13t12 34t-12 34t-29 13t-29 -13t-12 -34t12 -34t29 -13z" />
    <glyph glyph-name="ogonek" unicode="&#x2db;" horiz-adv-x="555" 
d="M192 -119q0 22 7.5 41t18 34.5t22.5 27t22 18.5h83q-54 -42 -54 -87q0 -20 13 -29t29 -9q10 0 19 3.5t16 8.5l31 -66q-20 -15 -49 -24t-52 -9q-45 0 -75.5 23t-30.5 68z" />
    <glyph glyph-name="tilde" unicode="&#x2dc;" horiz-adv-x="555" 
d="M112 575q8 69 36 102t68 33q20 0 37 -7t31 -15t26.5 -15t23.5 -7q13 0 21 10t14 34h75q-8 -68 -36 -101.5t-68 -33.5q-20 0 -36.5 7t-31 15.5t-27 15.5t-23.5 7q-13 0 -21 -10t-14 -35h-75v0z" />
    <glyph glyph-name="hungarumlaut" unicode="&#x2dd;" horiz-adv-x="555" 
d="M221 724h117l-95 -151h-90zM392 724h117l-95 -151h-91z" />
    <glyph glyph-name="l.sups" unicode="&#x2e1;" horiz-adv-x="194" 
d="M42 722h104v-359q0 -29 17 -29h5.5t7.5 2l12 -75q-9 -4 -21 -6.5t-30 -2.5q-54 0 -74.5 31.5t-20.5 83.5v355z" />
    <glyph glyph-name="s.sups" unicode="&#x2e2;" horiz-adv-x="297" 
d="M60 361q48 -34 86 -34q39 0 39 26q0 15 -20 23t-46 19q-16 6 -31.5 14.5t-28 20t-20.5 27t-8 36.5q0 46 35 75t93 29q40 0 68.5 -12.5t50.5 -29.5l-46 -61q-18 12 -35.5 20t-34.5 8q-35 0 -35 -25q0 -14 20.5 -22t45.5 -17q15 -6 31 -13.5t28.5 -19t20.5 -27.5t8 -38
q0 -47 -35.5 -77.5t-102.5 -30.5q-33 0 -67.5 12t-60.5 32z" />
    <glyph glyph-name="x.sups" unicode="&#x2e3;" horiz-adv-x="348" 
d="M112 431l-97 158h111l27 -51l28 -51h4l20 51l22 51h108l-97 -170l102 -159h-110l-29 51l-32 51h-4l-25 -51l-24 -51h-108z" />
    <glyph glyph-name="uni0300" unicode="&#x300;" 
d="M-149 724h142l89 -150h-107z" />
    <glyph glyph-name="uni0301" unicode="&#x301;" 
d="M25 574h-107l89 150h142z" />
    <glyph glyph-name="uni0302" unicode="&#x302;" 
d="M-58 724h116l96 -150h-99l-53 79h-4l-53 -79h-99z" />
    <glyph glyph-name="uni0303" unicode="&#x303;" 
d="M-166 575q8 69 36 102t68 33q20 0 37 -7t31 -15t26.5 -15t23.5 -7q13 0 21 10t14 34h75q-8 -68 -36 -101.5t-68 -33.5q-20 0 -36.5 7t-31 15.5t-27 15.5t-23.5 7q-13 0 -21 -10t-14 -35h-75v0z" />
    <glyph glyph-name="uni0304" unicode="&#x304;" 
d="M-138 685h276v-93h-276v93z" />
    <glyph glyph-name="uni0306" unicode="&#x306;" 
d="M0 574q-35 0 -60.5 11.5t-42.5 31t-26 44.5t-10 52h82q3 -24 17 -41t40 -17t40 17t17 41h82q-1 -27 -10 -52t-26 -44.5t-42.5 -31t-60.5 -11.5z" />
    <glyph glyph-name="uni0307" unicode="&#x307;" 
d="M0 569q-36 0 -58.5 21.5t-22.5 55.5t22.5 55.5t58.5 21.5t58.5 -21.5t22.5 -55.5t-22.5 -55.5t-58.5 -21.5z" />
    <glyph glyph-name="uni0308" unicode="&#x308;" 
d="M-99 571q-31 0 -50.5 20t-19.5 50q0 29 19.5 49t50.5 20t50.5 -20t19.5 -49q0 -30 -19.5 -50t-50.5 -20zM99 571q-31 0 -50.5 20t-19.5 50q0 29 19.5 49t50.5 20t50.5 -20t19.5 -49q0 -30 -19.5 -50t-50.5 -20z" />
    <glyph glyph-name="uni0309" unicode="&#x309;" 
d="M-46 615q18 3 31 9.5t13 20.5t-18 22.5t-61 10.5l17 74q92 -3 130 -27.5t38 -64.5q0 -26 -11 -44.5t-30 -31t-44.5 -19t-53.5 -8.5z" />
    <glyph glyph-name="uni030A" unicode="&#x30a;" 
d="M0 548q-51 0 -82 27.5t-31 74.5t31 74.5t82 27.5t82 -27.5t31 -74.5t-31 -74.5t-82 -27.5zM0 603q17 0 29 13t12 34t-12 34t-29 13t-29 -13t-12 -34t12 -34t29 -13z" />
    <glyph glyph-name="uni030B" unicode="&#x30b;" 
d="M-57 724h117l-95 -151h-90zM114 724h117l-95 -151h-91z" />
    <glyph glyph-name="uni030C" unicode="&#x30c;" 
d="M-154 724h99l53 -79h4l53 79h99l-96 -150h-116z" />
    <glyph glyph-name="uni030F" unicode="&#x30f;" 
d="M125 573h-90l-95 151h117zM-45 573h-91l-95 151h117z" />
    <glyph glyph-name="uni0312" unicode="&#x312;" 
d="M53 711q-56 -20 -62 -59q2 1 7 1q21 0 37 -14t16 -38q0 -26 -15.5 -41.5t-37.5 -15.5q-66 0 -66 83q0 42 24 75.5t75 53.5z" />
    <glyph glyph-name="uni0313" unicode="&#x313;" 
d="M-56 586q56 21 62 60q-2 -1 -8 -1q-21 0 -36.5 13.5t-15.5 37.5q0 27 15.5 42t37.5 15q66 0 66 -83q0 -42 -24 -75.5t-75 -53.5z" />
    <glyph glyph-name="uni031B" unicode="&#x31b;" 
d="M-10 486q30 5 48.5 17.5t18.5 44.5q0 14 -5 26t-11 20l101 44q11 -14 20 -34.5t9 -45.5q0 -33 -13.5 -57t-36.5 -39.5t-54 -24t-66 -10.5z" />
    <glyph glyph-name="uni0323" unicode="&#x323;" 
d="M0 -226q-36 0 -58.5 21.5t-22.5 55.5t22.5 55.5t58.5 21.5t58.5 -21.5t22.5 -55.5t-22.5 -55.5t-58.5 -21.5z" />
    <glyph glyph-name="uni0324" unicode="&#x324;" 
d="M-99 -216q-31 0 -50.5 20t-19.5 50q0 29 19.5 49.5t50.5 20.5t50.5 -20.5t19.5 -49.5q0 -30 -19.5 -50t-50.5 -20zM99 -216q-31 0 -50.5 20t-19.5 50q0 29 19.5 49.5t50.5 20.5t50.5 -20.5t19.5 -49.5q0 -30 -19.5 -50t-50.5 -20z" />
    <glyph glyph-name="uni0326" unicode="&#x326;" 
d="M-36 -42q68 -7 94.5 -26.5t26.5 -57.5q0 -26 -14.5 -44.5t-38.5 -31t-56 -19t-68 -8.5l-11 59q36 4 59.5 12t23.5 25q0 14 -10.5 22.5t-33.5 14.5l28 54v0z" />
    <glyph glyph-name="uni0327" unicode="&#x327;" 
d="M-39 4h86l-20 -47q26 -8 42 -25.5t16 -48.5q0 -26 -14.5 -44.5t-38.5 -31.5t-56 -19.5t-68 -8.5l-11 59q36 4 59.5 14t23.5 30q0 13 -12.5 23.5t-46.5 18.5z" />
    <glyph glyph-name="uni0328" unicode="&#x328;" 
d="M-86 -119q0 22 7.5 41t18 34.5t22.5 27t22 18.5h83q-54 -42 -54 -87q0 -20 13 -29t29 -9q10 0 19 3.5t16 8.5l31 -66q-20 -15 -49 -24t-52 -9q-45 0 -75.5 23t-30.5 68z" />
    <glyph glyph-name="uni032E" unicode="&#x32e;" 
d="M0 -210q-35 0 -60.5 11.5t-42.5 30.5t-26 44.5t-10 52.5h82q3 -25 17 -42t40 -17t40 17t17 42h82q-1 -27 -10 -52.5t-26 -44.5t-42.5 -30.5t-60.5 -11.5z" />
    <glyph glyph-name="uni0331" unicode="&#x331;" 
d="M138 -189h-276v94h276v-94z" />
    <glyph glyph-name="pi" unicode="&#x3c0;" horiz-adv-x="606" 
d="M104 380h-86v110l74 6h487v-116h-67v-228q0 -25 9.5 -35t20.5 -10h9t11 2l17 -108q-13 -6 -31.5 -9.5t-44.5 -3.5q-39 0 -65 12t-42.5 34.5t-23.5 54t-7 69.5v222h-115l-1 -380h-145v380z" />
    <glyph glyph-name="a.sups" unicode="&#x1d43;" horiz-adv-x="359" 
d="M130 252q-47 0 -74 29t-27 71q0 53 44 81.5t143 38.5q-2 21 -13.5 32t-35.5 11q-20 0 -43 -8t-47 -22l-37 69q33 19 69.5 31t75.5 12q64 0 99.5 -36.5t35.5 -111.5v-189h-83l-10 33h-4q-18 -18 -41 -29.5t-52 -11.5zM165 331q15 0 26.5 6.5t24.5 18.5v56q-50 -6 -69 -20
t-19 -32q0 -29 37 -29z" />
    <glyph glyph-name="b.sups" unicode="&#x1d47;" horiz-adv-x="385" 
d="M42 722h104v-112l-4 -50q19 17 41.5 27t45.5 10q30 0 54 -12t41 -34t26 -52.5t9 -67.5q0 -43 -11.5 -76.5t-31 -56t-44 -34.5t-51.5 -12q-23 0 -46 10.5t-41 32.5h-4l-8 -35h-80v462zM146 353q13 -11 25.5 -15t24.5 -4q23 0 40 22t17 73q0 85 -54 85q-26 0 -53 -28v-133z
" />
    <glyph glyph-name="d.sups" unicode="&#x1d48;" horiz-adv-x="385" 
d="M163 252q-63 0 -100 46.5t-37 132.5q0 39 12 69.5t31.5 52t44.5 33t50 11.5q26 0 46 -9.5t35 -25.5l-5 54v106h104v-462h-85l-8 31h-2q-17 -17 -39 -28t-47 -11zM191 334q14 0 26 6.5t23 22.5v132q-14 11 -26 15.5t-24 4.5q-23 0 -40.5 -21t-17.5 -63q0 -52 15 -74.5
t44 -22.5z" />
    <glyph glyph-name="e.sups" unicode="&#x1d49;" horiz-adv-x="346" 
d="M193 252q-36 0 -66.5 12t-53.5 34t-36 54t-13 73q0 39 13 71t34.5 54.5t50 34.5t60.5 12q37 0 64 -13t44 -35t25.5 -50.5t8.5 -59.5q0 -14 -1 -22t-4 -19h-196q6 -37 29 -52t55 -15q18 0 36 4.5t36 15.5l35 -62q-27 -18 -59 -27.5t-62 -9.5zM237 456q0 25 -12 43.5
t-42 18.5q-23 0 -40 -15t-22 -47h116z" />
    <glyph glyph-name="g.sups" unicode="&#x1d4d;" horiz-adv-x="361" 
d="M107 221q0 -17 19.5 -26.5t51.5 -9.5t52 11t20 27q0 14 -12 18.5t-36 4.5h-33q-11 0 -22.5 0.5t-22.5 3.5q-17 -12 -17 -29zM23 204q0 41 46 64v4q-14 9 -22 22t-8 34q0 17 10 33.5t27 27.5v4q-18 11 -31.5 33t-13.5 51q0 30 11.5 52.5t30.5 37.5t44.5 22.5t52.5 7.5
q14 0 28 -1.5t25 -6.5h121v-76h-51q9 -14 9 -39q0 -29 -10.5 -49.5t-28.5 -34.5t-42 -20.5t-51 -6.5q-8 0 -17.5 1t-21.5 5q-5 -5 -8 -10t-3 -13q0 -12 11 -17t38 -5h53q63 0 95 -19.5t32 -64.5q0 -51 -50 -85t-138 -34q-29 0 -54 4.5t-44 14.5t-29.5 26t-10.5 38zM170 425
q19 0 31 13t12 39t-12 38.5t-31 12.5t-31 -12.5t-12 -38.5t12 -39t31 -13z" />
    <glyph glyph-name="k.sups" unicode="&#x1d4f;" horiz-adv-x="371" 
d="M42 722h104v-260h4l97 127h112l-120 -139l128 -190h-112l-74 124l-35 -44v-80h-104v462z" />
    <glyph glyph-name="m.sups" unicode="&#x1d50;" horiz-adv-x="577" 
d="M42 589h84l8 -43h2q20 20 43 35.5t57 15.5q65 0 93 -56q20 22 45 39t59 17q55 0 80.5 -36.5t25.5 -98.5v-202h-104v190q0 30 -8.5 45t-32.5 15q-21 0 -52 -30v-220h-103v190q0 30 -9 45t-32 15q-22 0 -52 -30v-220h-104v329z" />
    <glyph glyph-name="o.sups" unicode="&#x1d52;" horiz-adv-x="373" 
d="M186 252q-32 0 -61 11.5t-51.5 34t-36 54t-13.5 72.5t13.5 73t36 54.5t51.5 34t61 11.5t61 -11.5t51.5 -34t36 -54.5t13.5 -73t-13.5 -72.5t-36 -54t-51.5 -34t-61 -11.5zM186 334q29 0 43 24.5t14 65.5q0 42 -14 66.5t-43 24.5t-42.5 -24.5t-13.5 -66.5
q0 -41 13.5 -65.5t42.5 -24.5z" />
    <glyph glyph-name="p.sups" unicode="&#x1d56;" horiz-adv-x="385" 
d="M42 589h83l7 -33h3q17 17 42.5 29t51.5 12q30 0 54 -12t41 -34t26 -52.5t9 -67.5q0 -43 -11.5 -76.5t-31 -56t-44 -34.5t-51.5 -12q-44 0 -81 35l6 -67v-93h-104v462zM146 353q13 -11 25.5 -15t24.5 -4q23 0 40 22t17 73q0 85 -54 85q-26 0 -53 -28v-133z" />
    <glyph glyph-name="t.sups" unicode="&#x1d57;" horiz-adv-x="259" 
d="M57 509h-45v77l50 3l12 86h87v-86h77v-80h-77v-125q0 -28 11.5 -40t29.5 -12q17 0 30 5l18 -73q-14 -5 -32.5 -8.5t-44.5 -3.5q-62 0 -89 36t-27 95v126z" />
    <glyph glyph-name="u.sups" unicode="&#x1d58;" horiz-adv-x="383" 
d="M144 252q-56 0 -80.5 36t-24.5 96v205h103v-191q0 -30 7.5 -44.5t34.5 -14.5q26 0 55 30v220h104v-329h-83l-11 41h-2q-17 -17 -43 -33t-60 -16z" />
    <glyph glyph-name="v.sups" unicode="&#x1d5b;" horiz-adv-x="355" 
d="M8 589h103l40 -151l28 -102h2l26 102l41 151h99l-109 -329h-120z" />
    <glyph glyph-name="c.sups" unicode="&#x1d9c;" horiz-adv-x="313" 
d="M187 252q-35 0 -65 11.5t-52 33.5t-34 54.5t-12 73.5q0 40 13.5 72t36.5 54t53.5 34t64.5 12q38 0 64.5 -11t39.5 -23l-48 -66q-11 8 -22 13t-25 5q-31 0 -51 -24.5t-20 -65.5t19 -66t51 -25q21 0 34 7t24 15l42 -66q-17 -14 -45 -26t-68 -12z" />
    <glyph glyph-name="f.sups" unicode="&#x1da0;" horiz-adv-x="232" 
d="M234 652q-7 2 -15.5 3.5t-18.5 1.5q-17 0 -26.5 -12.5t-9.5 -39.5v-16h58v-80h-58v-249h-104v249h-45v77l45 3v12q0 27 6.5 51.5t21.5 43.5t39 30t59 11q20 0 37.5 -3.5t29.5 -8.5z" />
    <glyph glyph-name="z.sups" unicode="&#x1dbb;" horiz-adv-x="312" 
d="M25 316l137 193h-120v80h249v-56l-137 -193h141v-80h-270v56z" />
    <glyph glyph-name="uni1E0C" unicode="&#x1e0c;" horiz-adv-x="634" 
d="M76 652h184q75 0 135.5 -19t103.5 -58.5t66 -100.5t23 -145t-23 -146t-65 -102.5t-100.5 -60.5t-130.5 -20h-193v652zM252 119q41 0 75 11t58.5 35.5t38 64.5t13.5 99q0 58 -13.5 97.5t-38 63t-58.5 33.5t-75 10h-28v-414h28zM312 -226q-36 0 -58.5 21.5t-22.5 55.5
t22.5 55.5t58.5 21.5t58.5 -21.5t22.5 -55.5t-22.5 -55.5t-58.5 -21.5z" />
    <glyph glyph-name="uni1E0D" unicode="&#x1e0d;" horiz-adv-x="573" 
d="M39 248q0 61 17.5 109t46 81.5t66 51.5t76.5 18q42 0 69 -14t53 -38l-6 76v169h147v-701h-120l-10 49h-4q-26 -26 -61 -43.5t-71 -17.5q-46 0 -83.5 18t-64 51.5t-41 81.5t-14.5 109zM190 250q0 -74 23.5 -108t66.5 -34q24 0 43.5 10t37.5 35v203q-20 18 -41 25t-41 7
q-35 0 -62 -33.5t-27 -104.5zM312 -226q-36 0 -58.5 21.5t-22.5 55.5t22.5 55.5t58.5 21.5t58.5 -21.5t22.5 -55.5t-22.5 -55.5t-58.5 -21.5z" />
    <glyph glyph-name="uni1E0E" unicode="&#x1e0e;" horiz-adv-x="634" 
d="M76 652h184q75 0 135.5 -19t103.5 -58.5t66 -100.5t23 -145t-23 -146t-65 -102.5t-100.5 -60.5t-130.5 -20h-193v652zM252 119q41 0 75 11t58.5 35.5t38 64.5t13.5 99q0 58 -13.5 97.5t-38 63t-58.5 33.5t-75 10h-28v-414h28zM450 -189h-276v94h276v-94z" />
    <glyph glyph-name="uni1E0F" unicode="&#x1e0f;" horiz-adv-x="573" 
d="M39 248q0 61 17.5 109t46 81.5t66 51.5t76.5 18q42 0 69 -14t53 -38l-6 76v169h147v-701h-120l-10 49h-4q-26 -26 -61 -43.5t-71 -17.5q-46 0 -83.5 18t-64 51.5t-41 81.5t-14.5 109zM190 250q0 -74 23.5 -108t66.5 -34q24 0 43.5 10t37.5 35v203q-20 18 -41 25t-41 7
q-35 0 -62 -33.5t-27 -104.5zM449 -189h-276v94h276v-94z" />
    <glyph glyph-name="uni1E20" unicode="&#x1e20;" horiz-adv-x="636" 
d="M45 322q0 81 25.5 144.5t69 107.5t102 67t124.5 23q69 0 119.5 -26t83.5 -59l-81 -91q-25 23 -51.5 36t-68.5 13q-38 0 -69.5 -14.5t-54 -41.5t-35.5 -66t-13 -88q0 -101 45.5 -156.5t138.5 -55.5q20 0 38.5 5t30.5 15v112h-108v120h239v-300q-18 -15 -41.5 -29.5
t-51.5 -25.5t-60 -17.5t-66 -6.5q-66 0 -123.5 21.5t-100.5 63.5t-67.5 104.5t-24.5 144.5zM225 813h282v-93h-282v93z" />
    <glyph glyph-name="uni1E21" unicode="&#x1e21;" horiz-adv-x="534" 
d="M155 -62q0 -28 30 -42.5t80 -14.5t82 17.5t32 43.5q0 23 -19.5 31t-56.5 8h-51q-26 0 -42 1.5t-28 4.5q-27 -24 -27 -49zM34 -85q0 60 71 100v4q-20 13 -33 33t-13 51q0 27 16 51.5t40 41.5v4q-26 18 -46.5 51.5t-20.5 77.5q0 45 17 78.5t45.5 56t65.5 33.5t77 11
q44 0 77 -12h181v-107h-79q7 -11 11.5 -28t4.5 -37q0 -43 -15 -74.5t-41.5 -52t-62 -30.5t-76.5 -10q-29 0 -60 10q-10 -8 -14 -16t-4 -21q0 -19 16.5 -28t58.5 -9h80q92 0 140.5 -29.5t48.5 -96.5q0 -39 -19.5 -71.5t-55.5 -56t-87 -37t-115 -13.5q-44 0 -81.5 7.5
t-66 22.5t-44.5 39t-16 57zM253 246q29 0 48.5 20.5t19.5 62.5q0 39 -19.5 59.5t-48.5 20.5t-48.5 -20t-19.5 -60q0 -42 19.5 -62.5t48.5 -20.5zM113 685h276v-93h-276v93z" />
    <glyph glyph-name="uni1E24" unicode="&#x1e24;" horiz-adv-x="672" 
d="M76 652h148v-251h225v251h147v-652h-147v272h-225v-272h-148v652zM335 -226q-36 0 -58.5 21.5t-22.5 55.5t22.5 55.5t58.5 21.5t58.5 -21.5t22.5 -55.5t-22.5 -55.5t-58.5 -21.5z" />
    <glyph glyph-name="uni1E25" unicode="&#x1e25;" horiz-adv-x="571" 
d="M65 701h147v-172l-7 -89q28 25 65 46.5t88 21.5q81 0 117.5 -53t36.5 -147v-308h-147v289q0 54 -14.5 74t-46.5 20q-28 0 -48 -12.5t-44 -35.5v-335h-147v701zM292 -226q-36 0 -58.5 21.5t-22.5 55.5t22.5 55.5t58.5 21.5t58.5 -21.5t22.5 -55.5t-22.5 -55.5t-58.5 -21.5
z" />
    <glyph glyph-name="uni1E2A" unicode="&#x1e2a;" horiz-adv-x="672" 
d="M76 652h148v-251h225v251h147v-652h-147v272h-225v-272h-148v652zM335 -210q-35 0 -60.5 11.5t-42.5 30.5t-26 44.5t-10 52.5h82q3 -25 17 -42t40 -17t40 17t17 42h82q-1 -27 -10 -52.5t-26 -44.5t-42.5 -30.5t-60.5 -11.5z" />
    <glyph glyph-name="uni1E2B" unicode="&#x1e2b;" horiz-adv-x="571" 
d="M65 701h147v-172l-7 -89q28 25 65 46.5t88 21.5q81 0 117.5 -53t36.5 -147v-308h-147v289q0 54 -14.5 74t-46.5 20q-28 0 -48 -12.5t-44 -35.5v-335h-147v701zM292 -210q-35 0 -60.5 11.5t-42.5 30.5t-26 44.5t-10 52.5h82q3 -25 17 -42t40 -17t40 17t17 42h82
q-1 -27 -10 -52.5t-26 -44.5t-42.5 -30.5t-60.5 -11.5z" />
    <glyph glyph-name="uni1E36" unicode="&#x1e36;" horiz-adv-x="516" 
d="M76 652h148v-528h257v-124h-405v652zM289 -226q-36 0 -58.5 21.5t-22.5 55.5t22.5 55.5t58.5 21.5t58.5 -21.5t22.5 -55.5t-22.5 -55.5t-58.5 -21.5z" />
    <glyph glyph-name="uni1E37" unicode="&#x1e37;" horiz-adv-x="286" 
d="M65 701h147v-553q0 -23 8.5 -32t17.5 -9h8.5t9.5 2l18 -109q-12 -5 -30.5 -8.5t-43.5 -3.5q-38 0 -64 12t-41.5 33.5t-22.5 52t-7 68.5v547zM190 -226q-36 0 -58.5 21.5t-22.5 55.5t22.5 55.5t58.5 21.5t58.5 -21.5t22.5 -55.5t-22.5 -55.5t-58.5 -21.5z" />
    <glyph glyph-name="uni1E38" unicode="&#x1e38;" horiz-adv-x="516" 
d="M76 652h148v-528h257v-124h-405v652zM12 813h282v-93h-282v93zM289 -226q-36 0 -58.5 21.5t-22.5 55.5t22.5 55.5t58.5 21.5t58.5 -21.5t22.5 -55.5t-22.5 -55.5t-58.5 -21.5z" />
    <glyph glyph-name="uni1E39" unicode="&#x1e39;" horiz-adv-x="286" 
d="M65 701h147v-553q0 -23 8.5 -32t17.5 -9h8.5t9.5 2l18 -109q-12 -5 -30.5 -8.5t-43.5 -3.5q-38 0 -64 12t-41.5 33.5t-22.5 52t-7 68.5v547zM-1 897h276v-93h-276v93zM190 -226q-36 0 -58.5 21.5t-22.5 55.5t22.5 55.5t58.5 21.5t58.5 -21.5t22.5 -55.5t-22.5 -55.5
t-58.5 -21.5z" />
    <glyph glyph-name="uni1E3A" unicode="&#x1e3a;" horiz-adv-x="516" 
d="M76 652h148v-528h257v-124h-405v652zM427 -189h-276v94h276v-94z" />
    <glyph glyph-name="uni1E3B" unicode="&#x1e3b;" horiz-adv-x="286" 
d="M65 701h147v-553q0 -23 8.5 -32t17.5 -9h8.5t9.5 2l18 -109q-12 -5 -30.5 -8.5t-43.5 -3.5q-38 0 -64 12t-41.5 33.5t-22.5 52t-7 68.5v547zM328 -189h-276v94h276v-94z" />
    <glyph glyph-name="uni1E42" unicode="&#x1e42;" horiz-adv-x="761" 
d="M76 652h156l109 -293l39 -114h4l39 114l106 293h156v-652h-138v239q0 24 2 53t5 58.5t6 58t6 52.5h-4l-53 -151l-101 -253h-59l-100 253l-52 151h-4q3 -24 6 -52.5t6 -58t5 -58.5t2 -53v-239h-136v652zM382 -226q-36 0 -58.5 21.5t-22.5 55.5t22.5 55.5t58.5 21.5
t58.5 -21.5t22.5 -55.5t-22.5 -55.5t-58.5 -21.5z" />
    <glyph glyph-name="uni1E43" unicode="&#x1e43;" horiz-adv-x="857" 
d="M65 496h120l10 -64h4q31 31 66 53.5t84 22.5q53 0 85.5 -21.5t51.5 -61.5q33 34 69.5 58.5t86.5 24.5q80 0 117.5 -53.5t37.5 -146.5v-308h-147v289q0 54 -14.5 74t-46.5 20q-37 0 -85 -48v-335h-147v289q0 54 -14.5 74t-46.5 20q-38 0 -84 -48v-335h-147v496zM439 -226
q-36 0 -58.5 21.5t-22.5 55.5t22.5 55.5t58.5 21.5t58.5 -21.5t22.5 -55.5t-22.5 -55.5t-58.5 -21.5z" />
    <glyph glyph-name="uni1E44" unicode="&#x1e44;" horiz-adv-x="664" 
d="M76 652h151l170 -324l65 -144h4q-5 52 -12 116t-7 122v230h140v-652h-151l-170 325l-64 142h-4q5 -54 12 -116t7 -120v-231h-141v652zM333 701q-37 0 -61 21.5t-24 55.5t24 55.5t61 21.5t61 -21.5t24 -55.5t-24 -55.5t-61 -21.5z" />
    <glyph glyph-name="uni1E45" unicode="&#x1e45;" horiz-adv-x="572" 
d="M65 496h120l10 -63h4q32 30 70 52.5t89 22.5q81 0 117.5 -53t36.5 -147v-308h-147v289q0 54 -14.5 74t-46.5 20q-28 0 -48 -12.5t-44 -35.5v-335h-147v496zM308 569q-36 0 -58.5 21.5t-22.5 55.5t22.5 55.5t58.5 21.5t58.5 -21.5t22.5 -55.5t-22.5 -55.5t-58.5 -21.5z
" />
    <glyph glyph-name="uni1E46" unicode="&#x1e46;" horiz-adv-x="664" 
d="M76 652h151l170 -324l65 -144h4q-5 52 -12 116t-7 122v230h140v-652h-151l-170 325l-64 142h-4q5 -54 12 -116t7 -120v-231h-141v652zM343 -226q-36 0 -58.5 21.5t-22.5 55.5t22.5 55.5t58.5 21.5t58.5 -21.5t22.5 -55.5t-22.5 -55.5t-58.5 -21.5z" />
    <glyph glyph-name="uni1E47" unicode="&#x1e47;" horiz-adv-x="572" 
d="M65 496h120l10 -63h4q32 30 70 52.5t89 22.5q81 0 117.5 -53t36.5 -147v-308h-147v289q0 54 -14.5 74t-46.5 20q-28 0 -48 -12.5t-44 -35.5v-335h-147v496zM291 -226q-36 0 -58.5 21.5t-22.5 55.5t22.5 55.5t58.5 21.5t58.5 -21.5t22.5 -55.5t-22.5 -55.5t-58.5 -21.5z
" />
    <glyph glyph-name="uni1E48" unicode="&#x1e48;" horiz-adv-x="664" 
d="M76 652h151l170 -324l65 -144h4q-5 52 -12 116t-7 122v230h140v-652h-151l-170 325l-64 142h-4q5 -54 12 -116t7 -120v-231h-141v652zM481 -189h-276v94h276v-94z" />
    <glyph glyph-name="uni1E49" unicode="&#x1e49;" horiz-adv-x="572" 
d="M65 496h120l10 -63h4q32 30 70 52.5t89 22.5q81 0 117.5 -53t36.5 -147v-308h-147v289q0 54 -14.5 74t-46.5 20q-28 0 -48 -12.5t-44 -35.5v-335h-147v496zM429 -189h-276v94h276v-94z" />
    <glyph glyph-name="uni1E5A" unicode="&#x1e5a;" horiz-adv-x="615" 
d="M224 352h75q58 0 88.5 24.5t30.5 72.5t-30.5 67t-88.5 19h-75v-183zM429 0l-125 235h-80v-235h-148v652h235q52 0 97.5 -10t80 -33.5t54.5 -62.5t20 -97q0 -72 -32 -118.5t-84 -69.5l147 -261h-165zM326 -226q-36 0 -58.5 21.5t-22.5 55.5t22.5 55.5t58.5 21.5
t58.5 -21.5t22.5 -55.5t-22.5 -55.5t-58.5 -21.5z" />
    <glyph glyph-name="uni1E5B" unicode="&#x1e5b;" horiz-adv-x="398" 
d="M65 496h120l10 -87h4q27 51 65 75t76 24q21 0 34.5 -2.5t24.5 -7.5l-24 -127q-14 4 -26 6t-28 2q-28 0 -58.5 -20t-50.5 -71v-288h-147v496zM138 -226q-36 0 -58.5 21.5t-22.5 55.5t22.5 55.5t58.5 21.5t58.5 -21.5t22.5 -55.5t-22.5 -55.5t-58.5 -21.5z" />
    <glyph glyph-name="uni1E5C" unicode="&#x1e5c;" horiz-adv-x="615" 
d="M224 352h75q58 0 88.5 24.5t30.5 72.5t-30.5 67t-88.5 19h-75v-183zM429 0l-125 235h-80v-235h-148v652h235q52 0 97.5 -10t80 -33.5t54.5 -62.5t20 -97q0 -72 -32 -118.5t-84 -69.5l147 -261h-165zM168 813h282v-93h-282v93zM326 -226q-36 0 -58.5 21.5t-22.5 55.5
t22.5 55.5t58.5 21.5t58.5 -21.5t22.5 -55.5t-22.5 -55.5t-58.5 -21.5z" />
    <glyph glyph-name="uni1E5D" unicode="&#x1e5d;" horiz-adv-x="398" 
d="M65 496h120l10 -87h4q27 51 65 75t76 24q21 0 34.5 -2.5t24.5 -7.5l-24 -127q-14 4 -26 6t-28 2q-28 0 -58.5 -20t-50.5 -71v-288h-147v496zM109 685h276v-93h-276v93zM138 -226q-36 0 -58.5 21.5t-22.5 55.5t22.5 55.5t58.5 21.5t58.5 -21.5t22.5 -55.5t-22.5 -55.5
t-58.5 -21.5z" />
    <glyph glyph-name="uni1E5E" unicode="&#x1e5e;" horiz-adv-x="615" 
d="M224 352h75q58 0 88.5 24.5t30.5 72.5t-30.5 67t-88.5 19h-75v-183zM429 0l-125 235h-80v-235h-148v652h235q52 0 97.5 -10t80 -33.5t54.5 -62.5t20 -97q0 -72 -32 -118.5t-84 -69.5l147 -261h-165zM464 -189h-276v94h276v-94z" />
    <glyph glyph-name="uni1E5F" unicode="&#x1e5f;" horiz-adv-x="398" 
d="M65 496h120l10 -87h4q27 51 65 75t76 24q21 0 34.5 -2.5t24.5 -7.5l-24 -127q-14 4 -26 6t-28 2q-28 0 -58.5 -20t-50.5 -71v-288h-147v496zM276 -189h-276v94h276v-94z" />
    <glyph glyph-name="uni1E60" unicode="&#x1e60;" horiz-adv-x="554" 
d="M119 183q35 -30 77 -49t83 -19q46 0 68.5 17t22.5 46q0 15 -6.5 26t-19 19.5t-30 16l-38.5 16.5l-84 36q-26 10 -49.5 26t-42 37.5t-29.5 50t-11 64.5q0 40 17.5 75.5t48 62t73 41.5t93.5 15q57 0 112.5 -22t97.5 -64l-74 -93q-32 25 -64.5 38.5t-71.5 13.5
q-38 0 -60.5 -15.5t-22.5 -43.5q0 -15 7.5 -25.5t21 -19t32 -16t39.5 -16.5l83 -34q60 -24 94.5 -66t34.5 -111q0 -41 -16.5 -77.5t-48 -64t-77 -44t-103.5 -16.5q-64 0 -127.5 23.5t-114.5 70.5zM290 701q-37 0 -61 21.5t-24 55.5t24 55.5t61 21.5t61 -21.5t24 -55.5
t-24 -55.5t-61 -21.5z" />
    <glyph glyph-name="uni1E61" unicode="&#x1e61;" horiz-adv-x="443" 
d="M87 149q34 -26 65 -39t63 -13q33 0 48 11t15 31q0 12 -8.5 21.5t-23 17.5t-32.5 14.5t-37 14.5q-23 9 -46 21t-42 29.5t-31 41t-12 54.5q0 34 13.5 63t38.5 49t60 31.5t78 11.5q57 0 100 -19.5t75 -43.5l-66 -88q-27 20 -53 31t-52 11q-56 0 -56 -39q0 -12 8 -20.5
t21.5 -15.5t31 -13.5t36.5 -13.5q24 -9 47.5 -20.5t43 -28.5t31.5 -41.5t12 -58.5t-13 -63t-39 -50.5t-64 -34t-88 -12.5q-49 0 -100.5 19t-89.5 50zM235 569q-36 0 -58.5 21.5t-22.5 55.5t22.5 55.5t58.5 21.5t58.5 -21.5t22.5 -55.5t-22.5 -55.5t-58.5 -21.5z" />
    <glyph glyph-name="uni1E62" unicode="&#x1e62;" horiz-adv-x="554" 
d="M119 183q35 -30 77 -49t83 -19q46 0 68.5 17t22.5 46q0 15 -6.5 26t-19 19.5t-30 16l-38.5 16.5l-84 36q-26 10 -49.5 26t-42 37.5t-29.5 50t-11 64.5q0 40 17.5 75.5t48 62t73 41.5t93.5 15q57 0 112.5 -22t97.5 -64l-74 -93q-32 25 -64.5 38.5t-71.5 13.5
q-38 0 -60.5 -15.5t-22.5 -43.5q0 -15 7.5 -25.5t21 -19t32 -16t39.5 -16.5l83 -34q60 -24 94.5 -66t34.5 -111q0 -41 -16.5 -77.5t-48 -64t-77 -44t-103.5 -16.5q-64 0 -127.5 23.5t-114.5 70.5zM279 -226q-36 0 -58.5 21.5t-22.5 55.5t22.5 55.5t58.5 21.5t58.5 -21.5
t22.5 -55.5t-22.5 -55.5t-58.5 -21.5z" />
    <glyph glyph-name="uni1E63" unicode="&#x1e63;" horiz-adv-x="443" 
d="M87 149q34 -26 65 -39t63 -13q33 0 48 11t15 31q0 12 -8.5 21.5t-23 17.5t-32.5 14.5t-37 14.5q-23 9 -46 21t-42 29.5t-31 41t-12 54.5q0 34 13.5 63t38.5 49t60 31.5t78 11.5q57 0 100 -19.5t75 -43.5l-66 -88q-27 20 -53 31t-52 11q-56 0 -56 -39q0 -12 8 -20.5
t21.5 -15.5t31 -13.5t36.5 -13.5q24 -9 47.5 -20.5t43 -28.5t31.5 -41.5t12 -58.5t-13 -63t-39 -50.5t-64 -34t-88 -12.5q-49 0 -100.5 19t-89.5 50zM232 -226q-36 0 -58.5 21.5t-22.5 55.5t22.5 55.5t58.5 21.5t58.5 -21.5t22.5 -55.5t-22.5 -55.5t-58.5 -21.5z" />
    <glyph glyph-name="uni1E6C" unicode="&#x1e6c;" horiz-adv-x="555" 
d="M204 528h-180v124h506v-124h-179v-528h-147v528zM277 -226q-36 0 -58.5 21.5t-22.5 55.5t22.5 55.5t58.5 21.5t58.5 -21.5t22.5 -55.5t-22.5 -55.5t-58.5 -21.5z" />
    <glyph glyph-name="uni1E6D" unicode="&#x1e6d;" horiz-adv-x="383" 
d="M85 381h-68v109l76 6l17 132h122v-132h119v-115h-119v-199q0 -42 17.5 -60.5t46.5 -18.5q12 0 24.5 3t22.5 7l23 -107q-20 -6 -47 -12t-63 -6q-46 0 -78.5 14t-53 39t-30 60.5t-9.5 78.5v201zM235 -226q-36 0 -58.5 21.5t-22.5 55.5t22.5 55.5t58.5 21.5t58.5 -21.5
t22.5 -55.5t-22.5 -55.5t-58.5 -21.5z" />
    <glyph glyph-name="uni1E6E" unicode="&#x1e6e;" horiz-adv-x="555" 
d="M204 528h-180v124h506v-124h-179v-528h-147v528zM415 -189h-276v94h276v-94z" />
    <glyph glyph-name="uni1E6F" unicode="&#x1e6f;" horiz-adv-x="383" 
d="M85 381h-68v109l76 6l17 132h122v-132h119v-115h-119v-199q0 -42 17.5 -60.5t46.5 -18.5q12 0 24.5 3t22.5 7l23 -107q-20 -6 -47 -12t-63 -6q-46 0 -78.5 14t-53 39t-30 60.5t-9.5 78.5v201zM373 -189h-276v94h276v-94z" />
    <glyph glyph-name="Wgrave" unicode="&#x1e80;" horiz-adv-x="812" 
d="M13 652h151l45 -305q7 -51 13.5 -102.5t13.5 -103.5h4q9 52 18.5 103.5t19.5 102.5l70 305h125l71 -305q10 -50 19.5 -101.5t19.5 -104.5h4q6 53 12.5 104t13.5 102l45 305h141l-116 -652h-185l-64 296q-8 38 -14.5 76.5t-11.5 74.5h-4q-6 -36 -12 -74.5t-14 -76.5
l-62 -296h-182zM244 822h156l81 -120h-117z" />
    <glyph glyph-name="wgrave" unicode="&#x1e81;" horiz-adv-x="776" 
d="M24 496h146l48 -230q6 -37 11 -73t11 -74h4q7 38 13.5 75t15.5 72l55 230h127l56 -230q9 -37 16 -73t15 -74h4q7 38 11.5 74t11.5 73l47 230h136l-119 -496h-172l-45 198q-8 35 -14 70t-13 75h-4q-7 -40 -12.5 -75t-12.5 -70l-44 -198h-168zM240 724h142l89 -150h-107z
" />
    <glyph glyph-name="Wacute" unicode="&#x1e82;" horiz-adv-x="812" 
d="M13 652h151l45 -305q7 -51 13.5 -102.5t13.5 -103.5h4q9 52 18.5 103.5t19.5 102.5l70 305h125l71 -305q10 -50 19.5 -101.5t19.5 -104.5h4q6 53 12.5 104t13.5 102l45 305h141l-116 -652h-185l-64 296q-8 38 -14.5 76.5t-11.5 74.5h-4q-6 -36 -12 -74.5t-14 -76.5
l-62 -296h-182zM448 702h-117l81 120h156z" />
    <glyph glyph-name="wacute" unicode="&#x1e83;" horiz-adv-x="776" 
d="M24 496h146l48 -230q6 -37 11 -73t11 -74h4q7 38 13.5 75t15.5 72l55 230h127l56 -230q9 -37 16 -73t15 -74h4q7 38 11.5 74t11.5 73l47 230h136l-119 -496h-172l-45 198q-8 35 -14 70t-13 75h-4q-7 -40 -12.5 -75t-12.5 -70l-44 -198h-168zM414 574h-107l89 150h142z
" />
    <glyph glyph-name="Wdieresis" unicode="&#x1e84;" horiz-adv-x="812" 
d="M13 652h151l45 -305q7 -51 13.5 -102.5t13.5 -103.5h4q9 52 18.5 103.5t19.5 102.5l70 305h125l71 -305q10 -50 19.5 -101.5t19.5 -104.5h4q6 53 12.5 104t13.5 102l45 305h141l-116 -652h-185l-64 296q-8 38 -14.5 76.5t-11.5 74.5h-4q-6 -36 -12 -74.5t-14 -76.5
l-62 -296h-182zM307 700q-31 0 -50.5 20t-19.5 50t19.5 50t50.5 20t50.5 -20t19.5 -50t-19.5 -50t-50.5 -20zM505 700q-31 0 -50.5 20t-19.5 50t19.5 50t50.5 20t50.5 -20t19.5 -50t-19.5 -50t-50.5 -20z" />
    <glyph glyph-name="wdieresis" unicode="&#x1e85;" horiz-adv-x="776" 
d="M24 496h146l48 -230q6 -37 11 -73t11 -74h4q7 38 13.5 75t15.5 72l55 230h127l56 -230q9 -37 16 -73t15 -74h4q7 38 11.5 74t11.5 73l47 230h136l-119 -496h-172l-45 198q-8 35 -14 70t-13 75h-4q-7 -40 -12.5 -75t-12.5 -70l-44 -198h-168zM290 571q-31 0 -50.5 20
t-19.5 50q0 29 19.5 49t50.5 20t50.5 -20t19.5 -49q0 -30 -19.5 -50t-50.5 -20zM488 571q-31 0 -50.5 20t-19.5 50q0 29 19.5 49t50.5 20t50.5 -20t19.5 -49q0 -30 -19.5 -50t-50.5 -20z" />
    <glyph glyph-name="uni1E8E" unicode="&#x1e8e;" horiz-adv-x="524" 
d="M188 232l-196 420h157l59 -150q13 -37 26 -71.5t27 -72.5h4q14 38 27.5 72.5t27.5 71.5l58 150h154l-197 -420v-232h-147v232zM262 701q-37 0 -61 21.5t-24 55.5t24 55.5t61 21.5t61 -21.5t24 -55.5t-24 -55.5t-61 -21.5z" />
    <glyph glyph-name="uni1E8F" unicode="&#x1e8f;" horiz-adv-x="521" 
d="M76 -72q7 -2 16 -4t17 -2q37 0 57 18t30 47l7 26l-191 483h148l71 -213q11 -34 20 -69t19 -72h4q8 35 16.5 70.5t17.5 70.5l60 213h141l-172 -501q-18 -47 -37.5 -82.5t-45 -59t-58 -35.5t-76.5 -12q-23 0 -39 2.5t-31 7.5l26 112v0zM266 569q-36 0 -58.5 21.5
t-22.5 55.5t22.5 55.5t58.5 21.5t58.5 -21.5t22.5 -55.5t-22.5 -55.5t-58.5 -21.5z" />
    <glyph glyph-name="uni1E92" unicode="&#x1e92;" horiz-adv-x="540" 
d="M35 89l288 439h-261v124h443v-89l-288 -439h290v-124h-472v89zM281 -226q-36 0 -58.5 21.5t-22.5 55.5t22.5 55.5t58.5 21.5t58.5 -21.5t22.5 -55.5t-22.5 -55.5t-58.5 -21.5z" />
    <glyph glyph-name="uni1E93" unicode="&#x1e93;" horiz-adv-x="460" 
d="M38 79l208 302h-185v115h368v-78l-208 -303h215v-115h-398v79zM245 -226q-36 0 -58.5 21.5t-22.5 55.5t22.5 55.5t58.5 21.5t58.5 -21.5t22.5 -55.5t-22.5 -55.5t-58.5 -21.5z" />
    <glyph glyph-name="uni1E97" unicode="&#x1e97;" horiz-adv-x="383" 
d="M85 381h-68v109l76 6l17 132h122v-132h119v-115h-119v-199q0 -42 17.5 -60.5t46.5 -18.5q12 0 24.5 3t22.5 7l23 -107q-20 -6 -47 -12t-63 -6q-46 0 -78.5 14t-53 39t-30 60.5t-9.5 78.5v201zM68 711q-31 0 -50.5 20t-19.5 50q0 29 19.5 49t50.5 20t50.5 -20t19.5 -49
q0 -30 -19.5 -50t-50.5 -20zM266 711q-31 0 -50.5 20t-19.5 50q0 29 19.5 49t50.5 20t50.5 -20t19.5 -49q0 -30 -19.5 -50t-50.5 -20z" />
    <glyph glyph-name="uni1E9E" unicode="&#x1e9e;" horiz-adv-x="704" 
d="M80 409q0 53 16 99.5t50 81t87 54.5t127 20q99 0 162 -50.5t86 -132.5l-108 -122q37 -12 67 -28t52 -37.5t34 -50t12 -65.5q0 -40 -13 -75t-39 -60.5t-64 -40t-87 -14.5q-65 0 -111.5 22t-74.5 50l77 90q24 -24 46.5 -33.5t44.5 -9.5q32 0 51 20t19 52q0 30 -34 55.5
t-117 40.5l-9 86l109 125q-13 23 -39.5 41t-67.5 18q-129 0 -129 -156v-389h-147v409z" />
    <glyph glyph-name="uni1EA0" unicode="&#x1ea0;" horiz-adv-x="571" 
d="M353 270l-16 60q-14 49 -26.5 104t-26.5 106h-4q-11 -52 -24 -106.5t-27 -103.5l-16 -60h140zM383 155h-200l-40 -155h-150l205 652h176l205 -652h-156zM282 -226q-36 0 -58.5 21.5t-22.5 55.5t22.5 55.5t58.5 21.5t58.5 -21.5t22.5 -55.5t-22.5 -55.5t-58.5 -21.5z" />
    <glyph glyph-name="uni1EA1" unicode="&#x1ea1;" horiz-adv-x="534" 
d="M47 138q0 78 66 122t213 59q-2 33 -20 52.5t-58 19.5q-32 0 -64 -12t-68 -33l-52 97q48 29 100.5 47t111.5 18q96 0 146.5 -54.5t50.5 -169.5v-284h-120l-11 51h-3q-32 -28 -67.5 -45.5t-77.5 -17.5q-34 0 -61 11.5t-46 32t-29.5 47.5t-10.5 59zM187 149
q0 -24 15.5 -35.5t41.5 -11.5t44 11t38 31v87q-79 -11 -109 -32t-30 -50zM264 -226q-36 0 -58.5 21.5t-22.5 55.5t22.5 55.5t58.5 21.5t58.5 -21.5t22.5 -55.5t-22.5 -55.5t-58.5 -21.5z" />
    <glyph glyph-name="uni1EA2" unicode="&#x1ea2;" horiz-adv-x="571" 
d="M353 270l-16 60q-14 49 -26.5 104t-26.5 106h-4q-11 -52 -24 -106.5t-27 -103.5l-16 -60h140zM383 155h-200l-40 -155h-150l205 652h176l205 -652h-156zM236 749q18 4 31 10t13 20t-18 22.5t-61 11.5l17 73q92 -2 130 -26.5t38 -64.5q0 -26 -11 -44.5t-30 -31
t-44.5 -19.5t-53.5 -9z" />
    <glyph glyph-name="uni1EA3" unicode="&#x1ea3;" horiz-adv-x="534" 
d="M47 138q0 78 66 122t213 59q-2 33 -20 52.5t-58 19.5q-32 0 -64 -12t-68 -33l-52 97q48 29 100.5 47t111.5 18q96 0 146.5 -54.5t50.5 -169.5v-284h-120l-11 51h-3q-32 -28 -67.5 -45.5t-77.5 -17.5q-34 0 -61 11.5t-46 32t-29.5 47.5t-10.5 59zM187 149
q0 -24 15.5 -35.5t41.5 -11.5t44 11t38 31v87q-79 -11 -109 -32t-30 -50zM235 615q18 3 31 9.5t13 20.5t-18 22.5t-61 10.5l17 74q92 -3 130 -27.5t38 -64.5q0 -26 -11 -44.5t-30 -31t-44.5 -19t-53.5 -8.5z" />
    <glyph glyph-name="uni1EA4" unicode="&#x1ea4;" horiz-adv-x="571" 
d="M353 270l-16 60q-14 49 -26.5 104t-26.5 106h-4q-11 -52 -24 -106.5t-27 -103.5l-16 -60h140zM383 155h-200l-40 -155h-150l205 652h176l205 -652h-156zM463 890h114l-99 -120h-83zM219 816h126l95 -114h-104l-52 55h-4l-52 -55h-104z" />
    <glyph glyph-name="uni1EA5" unicode="&#x1ea5;" horiz-adv-x="534" 
d="M47 138q0 78 66 122t213 59q-2 33 -20 52.5t-58 19.5q-32 0 -64 -12t-68 -33l-52 97q48 29 100.5 47t111.5 18q96 0 146.5 -54.5t50.5 -169.5v-284h-120l-11 51h-3q-32 -28 -67.5 -45.5t-77.5 -17.5q-34 0 -61 11.5t-46 32t-29.5 47.5t-10.5 59zM187 149
q0 -24 15.5 -35.5t41.5 -11.5t44 11t38 31v87q-79 -11 -109 -32t-30 -50zM223 702h116l81 -128h-90l-47 65h-4l-47 -65h-90zM456 764h109l-95 -118h-82z" />
    <glyph glyph-name="uni1EA6" unicode="&#x1ea6;" horiz-adv-x="571" 
d="M353 270l-16 60q-14 49 -26.5 104t-26.5 106h-4q-11 -52 -24 -106.5t-27 -103.5l-16 -60h140zM383 155h-200l-40 -155h-150l205 652h176l205 -652h-156zM520 770h-84l-98 120h113zM219 816h126l95 -114h-104l-52 55h-4l-52 -55h-104z" />
    <glyph glyph-name="uni1EA7" unicode="&#x1ea7;" horiz-adv-x="534" 
d="M47 138q0 78 66 122t213 59q-2 33 -20 52.5t-58 19.5q-32 0 -64 -12t-68 -33l-52 97q48 29 100.5 47t111.5 18q96 0 146.5 -54.5t50.5 -169.5v-284h-120l-11 51h-3q-32 -28 -67.5 -45.5t-77.5 -17.5q-34 0 -61 11.5t-46 32t-29.5 47.5t-10.5 59zM187 149
q0 -24 15.5 -35.5t41.5 -11.5t44 11t38 31v87q-79 -11 -109 -32t-30 -50zM223 702h116l81 -128h-90l-47 65h-4l-47 -65h-90zM530 646h-82l-95 118h109z" />
    <glyph glyph-name="uni1EA8" unicode="&#x1ea8;" horiz-adv-x="571" 
d="M353 270l-16 60q-14 49 -26.5 104t-26.5 106h-4q-11 -52 -24 -106.5t-27 -103.5l-16 -60h140zM383 155h-200l-40 -155h-150l205 652h176l205 -652h-156zM408 797q14 3 23 8.5t9 18.5q0 14 -13.5 22t-51.5 11l13 60q82 -2 114.5 -24.5t32.5 -55.5q0 -44 -33.5 -63.5
t-82.5 -23.5zM219 816h126l95 -114h-104l-52 55h-4l-52 -55h-104z" />
    <glyph glyph-name="uni1EA9" unicode="&#x1ea9;" horiz-adv-x="534" 
d="M47 138q0 78 66 122t213 59q-2 33 -20 52.5t-58 19.5q-32 0 -64 -12t-68 -33l-52 97q48 29 100.5 47t111.5 18q96 0 146.5 -54.5t50.5 -169.5v-284h-120l-11 51h-3q-32 -28 -67.5 -45.5t-77.5 -17.5q-34 0 -61 11.5t-46 32t-29.5 47.5t-10.5 59zM187 149
q0 -24 15.5 -35.5t41.5 -11.5t44 11t38 31v87q-79 -11 -109 -32t-30 -50zM223 702h116l81 -128h-90l-47 65h-4l-47 -65h-90zM409 678q14 3 22 9t8 19q0 14 -13.5 22.5t-51.5 10.5l14 62q82 -2 114.5 -23t32.5 -56q0 -25 -9.5 -41.5t-25 -27t-36.5 -16.5t-45 -9z" />
    <glyph glyph-name="uni1EAA" unicode="&#x1eaa;" horiz-adv-x="571" 
d="M353 270l-16 60q-14 49 -26.5 104t-26.5 106h-4q-11 -52 -24 -106.5t-27 -103.5l-16 -60h140zM383 155h-200l-40 -155h-150l205 652h176l205 -652h-156zM219 816h126l95 -114h-104l-52 55h-4l-52 -55h-104zM133 852q6 59 32.5 86.5t59.5 27.5q18 0 32.5 -6t27.5 -13.5
t23.5 -13.5t21.5 -6q27 0 36 39h65q-6 -59 -32.5 -86.5t-59.5 -27.5q-18 0 -32.5 6t-27.5 13t-24 13t-21 6q-28 0 -36 -38h-65z" />
    <glyph glyph-name="uni1EAB" unicode="&#x1eab;" horiz-adv-x="534" 
d="M47 138q0 78 66 122t213 59q-2 33 -20 52.5t-58 19.5q-32 0 -64 -12t-68 -33l-52 97q48 29 100.5 47t111.5 18q96 0 146.5 -54.5t50.5 -169.5v-284h-120l-11 51h-3q-32 -28 -67.5 -45.5t-77.5 -17.5q-34 0 -61 11.5t-46 32t-29.5 47.5t-10.5 59zM187 149
q0 -24 15.5 -35.5t41.5 -11.5t44 11t38 31v87q-79 -11 -109 -32t-30 -50zM214 684h134l80 -111h-95l-50 59h-4l-50 -59h-95zM135 720q7 60 32.5 87t58.5 27q20 0 34.5 -6t26 -13t21 -13t20.5 -6q28 0 35 38h64q-7 -59 -32.5 -86.5t-58.5 -27.5q-20 0 -34.5 6t-26 13
t-21.5 13t-20 6q-28 0 -35 -38h-64z" />
    <glyph glyph-name="uni1EAC" unicode="&#x1eac;" horiz-adv-x="571" 
d="M353 270l-16 60q-14 49 -26.5 104t-26.5 106h-4q-11 -52 -24 -106.5t-27 -103.5l-16 -60h140zM383 155h-200l-40 -155h-150l205 652h176l205 -652h-156zM114 702l96 120h144l96 -120h-113l-53 61h-4l-53 -61h-113zM282 -226q-36 0 -58.5 21.5t-22.5 55.5t22.5 55.5
t58.5 21.5t58.5 -21.5t22.5 -55.5t-22.5 -55.5t-58.5 -21.5z" />
    <glyph glyph-name="uni1EAD" unicode="&#x1ead;" horiz-adv-x="534" 
d="M47 138q0 78 66 122t213 59q-2 33 -20 52.5t-58 19.5q-32 0 -64 -12t-68 -33l-52 97q48 29 100.5 47t111.5 18q96 0 146.5 -54.5t50.5 -169.5v-284h-120l-11 51h-3q-32 -28 -67.5 -45.5t-77.5 -17.5q-34 0 -61 11.5t-46 32t-29.5 47.5t-10.5 59zM187 149
q0 -24 15.5 -35.5t41.5 -11.5t44 11t38 31v87q-79 -11 -109 -32t-30 -50zM223 724h116l96 -150h-99l-53 79h-4l-53 -79h-99zM264 -226q-36 0 -58.5 21.5t-22.5 55.5t22.5 55.5t58.5 21.5t58.5 -21.5t22.5 -55.5t-22.5 -55.5t-58.5 -21.5z" />
    <glyph glyph-name="uni1EAE" unicode="&#x1eae;" horiz-adv-x="571" 
d="M353 270l-16 60q-14 49 -26.5 104t-26.5 106h-4q-11 -52 -24 -106.5t-27 -103.5l-16 -60h140zM383 155h-200l-40 -155h-150l205 652h176l205 -652h-156zM301 927h111l-101 -119h-74zM282 702q-65 0 -98 33t-38 87h67q6 -24 21 -39t48 -15t48 15t21 39h67q-5 -54 -38 -87
t-98 -33z" />
    <glyph glyph-name="uni1EAF" unicode="&#x1eaf;" horiz-adv-x="534" 
d="M47 138q0 78 66 122t213 59q-2 33 -20 52.5t-58 19.5q-32 0 -64 -12t-68 -33l-52 97q48 29 100.5 47t111.5 18q96 0 146.5 -54.5t50.5 -169.5v-284h-120l-11 51h-3q-32 -28 -67.5 -45.5t-77.5 -17.5q-34 0 -61 11.5t-46 32t-29.5 47.5t-10.5 59zM187 149
q0 -24 15.5 -35.5t41.5 -11.5t44 11t38 31v87q-79 -11 -109 -32t-30 -50zM292 810h106l-89 -118h-74zM281 574q-35 0 -60.5 11.5t-42.5 31t-26 44.5t-10 52h65q5 -28 22.5 -47.5t51.5 -19.5t51.5 19.5t22.5 47.5h65q-1 -27 -10 -52t-26 -44.5t-42.5 -31t-60.5 -11.5z" />
    <glyph glyph-name="uni1EB0" unicode="&#x1eb0;" horiz-adv-x="571" 
d="M353 270l-16 60q-14 49 -26.5 104t-26.5 106h-4q-11 -52 -24 -106.5t-27 -103.5l-16 -60h140zM383 155h-200l-40 -155h-150l205 652h176l205 -652h-156zM327 808h-74l-101 119h111zM282 702q-65 0 -98 33t-38 87h67q6 -24 21 -39t48 -15t48 15t21 39h67q-5 -54 -38 -87
t-98 -33z" />
    <glyph glyph-name="uni1EB1" unicode="&#x1eb1;" horiz-adv-x="534" 
d="M47 138q0 78 66 122t213 59q-2 33 -20 52.5t-58 19.5q-32 0 -64 -12t-68 -33l-52 97q48 29 100.5 47t111.5 18q96 0 146.5 -54.5t50.5 -169.5v-284h-120l-11 51h-3q-32 -28 -67.5 -45.5t-77.5 -17.5q-34 0 -61 11.5t-46 32t-29.5 47.5t-10.5 59zM187 149
q0 -24 15.5 -35.5t41.5 -11.5t44 11t38 31v87q-79 -11 -109 -32t-30 -50zM327 692h-74l-89 118h106zM281 574q-35 0 -60.5 11.5t-42.5 31t-26 44.5t-10 52h65q5 -28 22.5 -47.5t51.5 -19.5t51.5 19.5t22.5 47.5h65q-1 -27 -10 -52t-26 -44.5t-42.5 -31t-60.5 -11.5z" />
    <glyph glyph-name="uni1EB2" unicode="&#x1eb2;" horiz-adv-x="571" 
d="M353 270l-16 60q-14 49 -26.5 104t-26.5 106h-4q-11 -52 -24 -106.5t-27 -103.5l-16 -60h140zM383 155h-200l-40 -155h-150l205 652h176l205 -652h-156zM238 853q14 3 23.5 8.5t9.5 18.5q0 14 -14 22t-52 11l14 61q82 -3 114 -25.5t32 -55.5q0 -22 -9 -37.5t-24.5 -26
t-36.5 -16t-45 -7.5zM282 702q-65 0 -98 33t-38 87h67q6 -24 21 -39t48 -15t48 15t21 39h67q-5 -54 -38 -87t-98 -33z" />
    <glyph glyph-name="uni1EB3" unicode="&#x1eb3;" horiz-adv-x="534" 
d="M47 138q0 78 66 122t213 59q-2 33 -20 52.5t-58 19.5q-32 0 -64 -12t-68 -33l-52 97q48 29 100.5 47t111.5 18q96 0 146.5 -54.5t50.5 -169.5v-284h-120l-11 51h-3q-32 -28 -67.5 -45.5t-77.5 -17.5q-34 0 -61 11.5t-46 32t-29.5 47.5t-10.5 59zM187 149
q0 -24 15.5 -35.5t41.5 -11.5t44 11t38 31v87q-79 -11 -109 -32t-30 -50zM281 574q-35 0 -60.5 11.5t-42.5 31t-26 44.5t-10 52h65q5 -28 22.5 -47.5t51.5 -19.5t51.5 19.5t22.5 47.5h65q-1 -27 -10 -52t-26 -44.5t-42.5 -31t-60.5 -11.5zM237 748q14 3 22 8.5t8 19.5
t-13.5 22t-51.5 11l13 62q82 -3 115 -24t33 -56q0 -24 -9.5 -40.5t-25 -27t-37 -16.5t-45.5 -9z" />
    <glyph glyph-name="uni1EB4" unicode="&#x1eb4;" horiz-adv-x="571" 
d="M353 270l-16 60q-14 49 -26.5 104t-26.5 106h-4q-11 -52 -24 -106.5t-27 -103.5l-16 -60h140zM383 155h-200l-40 -155h-150l205 652h176l205 -652h-156zM282 702q-65 0 -98 33t-38 87h67q6 -24 21 -39t48 -15t48 15t21 39h67q-5 -54 -38 -87t-98 -33zM133 852
q6 59 32.5 86.5t59.5 27.5q18 0 32.5 -6t27.5 -13.5t23.5 -13.5t21.5 -6q27 0 36 39h65q-6 -59 -32.5 -86.5t-59.5 -27.5q-18 0 -32.5 6t-27.5 13t-24 13t-21 6q-28 0 -36 -38h-65z" />
    <glyph glyph-name="uni1EB5" unicode="&#x1eb5;" horiz-adv-x="534" 
d="M47 138q0 78 66 122t213 59q-2 33 -20 52.5t-58 19.5q-32 0 -64 -12t-68 -33l-52 97q48 29 100.5 47t111.5 18q96 0 146.5 -54.5t50.5 -169.5v-284h-120l-11 51h-3q-32 -28 -67.5 -45.5t-77.5 -17.5q-34 0 -61 11.5t-46 32t-29.5 47.5t-10.5 59zM187 149
q0 -24 15.5 -35.5t41.5 -11.5t44 11t38 31v87q-79 -11 -109 -32t-30 -50zM281 574q-35 0 -60.5 9.5t-42.5 26t-26 38t-10 45.5h69q5 -20 20.5 -35t49.5 -15t49.5 15t20.5 35h69q-1 -24 -10 -45.5t-26 -38t-42.5 -26t-60.5 -9.5zM135 720q7 60 32.5 87t58.5 27q20 0 34.5 -6
t26 -13t21 -13t20.5 -6q28 0 35 38h64q-7 -59 -32.5 -86.5t-58.5 -27.5q-20 0 -34.5 6t-26 13t-21.5 13t-20 6q-28 0 -35 -38h-64z" />
    <glyph glyph-name="uni1EB6" unicode="&#x1eb6;" horiz-adv-x="571" 
d="M353 270l-16 60q-14 49 -26.5 104t-26.5 106h-4q-11 -52 -24 -106.5t-27 -103.5l-16 -60h140zM383 155h-200l-40 -155h-150l205 652h176l205 -652h-156zM282 702q-66 0 -98.5 33t-38.5 87h81q5 -20 17.5 -33t38.5 -13t38.5 13t17.5 33h81q-6 -54 -38.5 -87t-98.5 -33z
M282 -226q-36 0 -58.5 21.5t-22.5 55.5t22.5 55.5t58.5 21.5t58.5 -21.5t22.5 -55.5t-22.5 -55.5t-58.5 -21.5z" />
    <glyph glyph-name="uni1EB7" unicode="&#x1eb7;" horiz-adv-x="534" 
d="M47 138q0 78 66 122t213 59q-2 33 -20 52.5t-58 19.5q-32 0 -64 -12t-68 -33l-52 97q48 29 100.5 47t111.5 18q96 0 146.5 -54.5t50.5 -169.5v-284h-120l-11 51h-3q-32 -28 -67.5 -45.5t-77.5 -17.5q-34 0 -61 11.5t-46 32t-29.5 47.5t-10.5 59zM187 149
q0 -24 15.5 -35.5t41.5 -11.5t44 11t38 31v87q-79 -11 -109 -32t-30 -50zM281 574q-35 0 -60.5 11.5t-42.5 31t-26 44.5t-10 52h82q3 -24 17 -41t40 -17t40 17t17 41h82q-1 -27 -10 -52t-26 -44.5t-42.5 -31t-60.5 -11.5zM264 -226q-36 0 -58.5 21.5t-22.5 55.5t22.5 55.5
t58.5 21.5t58.5 -21.5t22.5 -55.5t-22.5 -55.5t-58.5 -21.5z" />
    <glyph glyph-name="uni1EB8" unicode="&#x1eb8;" horiz-adv-x="546" 
d="M76 652h409v-124h-261v-131h222v-123h-222v-150h271v-124h-419v652zM294 -226q-36 0 -58.5 21.5t-22.5 55.5t22.5 55.5t58.5 21.5t58.5 -21.5t22.5 -55.5t-22.5 -55.5t-58.5 -21.5z" />
    <glyph glyph-name="uni1EB9" unicode="&#x1eb9;" horiz-adv-x="518" 
d="M36 248q0 60 20 108.5t52.5 82t74.5 51.5t87 18q53 0 92.5 -18t66 -50t39.5 -75.5t13 -94.5q0 -20 -2 -36.5t-4 -25.5h-297q10 -57 44.5 -82.5t84.5 -25.5q53 0 107 33l49 -89q-38 -26 -84.5 -41t-91.5 -15q-53 0 -99 17.5t-80 51t-53 81.5t-19 110zM356 299q0 43 -19 70
t-64 27q-35 0 -61.5 -23.5t-34.5 -73.5h179zM270 -226q-36 0 -58.5 21.5t-22.5 55.5t22.5 55.5t58.5 21.5t58.5 -21.5t22.5 -55.5t-22.5 -55.5t-58.5 -21.5z" />
    <glyph glyph-name="uni1EBA" unicode="&#x1eba;" horiz-adv-x="546" 
d="M76 652h409v-124h-261v-131h222v-123h-222v-150h271v-124h-419v652zM241 749q18 4 31 10t13 20t-18 22.5t-61 11.5l17 73q92 -2 130 -26.5t38 -64.5q0 -26 -11 -44.5t-30 -31t-44.5 -19.5t-53.5 -9z" />
    <glyph glyph-name="uni1EBB" unicode="&#x1ebb;" horiz-adv-x="518" 
d="M36 248q0 60 20 108.5t52.5 82t74.5 51.5t87 18q53 0 92.5 -18t66 -50t39.5 -75.5t13 -94.5q0 -20 -2 -36.5t-4 -25.5h-297q10 -57 44.5 -82.5t84.5 -25.5q53 0 107 33l49 -89q-38 -26 -84.5 -41t-91.5 -15q-53 0 -99 17.5t-80 51t-53 81.5t-19 110zM356 299q0 43 -19 70
t-64 27q-35 0 -61.5 -23.5t-34.5 -73.5h179zM224 615q18 3 31 9.5t13 20.5t-18 22.5t-61 10.5l17 74q92 -3 130 -27.5t38 -64.5q0 -26 -11 -44.5t-30 -31t-44.5 -19t-53.5 -8.5z" />
    <glyph glyph-name="uni1EBC" unicode="&#x1ebc;" horiz-adv-x="546" 
d="M76 652h409v-124h-261v-131h222v-123h-222v-150h271v-124h-419v652zM350 703q-20 0 -37 7t-31.5 15.5t-27 15.5t-24.5 7q-13 0 -23 -10t-15 -35h-75q8 69 38 102.5t69 33.5q20 0 37 -7t31.5 -15.5t27 -15.5t24.5 -7q13 0 23 10t15 35h75q-8 -69 -38 -102.5t-69 -33.5z
" />
    <glyph glyph-name="uni1EBD" unicode="&#x1ebd;" horiz-adv-x="518" 
d="M36 248q0 60 20 108.5t52.5 82t74.5 51.5t87 18q53 0 92.5 -18t66 -50t39.5 -75.5t13 -94.5q0 -20 -2 -36.5t-4 -25.5h-297q10 -57 44.5 -82.5t84.5 -25.5q53 0 107 33l49 -89q-38 -26 -84.5 -41t-91.5 -15q-53 0 -99 17.5t-80 51t-53 81.5t-19 110zM356 299q0 43 -19 70
t-64 27q-35 0 -61.5 -23.5t-34.5 -73.5h179zM104 575q8 69 36 102t68 33q20 0 37 -7t31 -15t26.5 -15t23.5 -7q13 0 21 10t14 34h75q-8 -68 -36 -101.5t-68 -33.5q-20 0 -36.5 7t-31 15.5t-27 15.5t-23.5 7q-13 0 -21 -10t-14 -35h-75v0z" />
    <glyph glyph-name="uni1EBE" unicode="&#x1ebe;" horiz-adv-x="546" 
d="M76 652h409v-124h-261v-131h222v-123h-222v-150h271v-124h-419v652zM468 890h114l-99 -120h-83zM224 816h126l95 -114h-104l-52 55h-4l-52 -55h-104z" />
    <glyph glyph-name="uni1EBF" unicode="&#x1ebf;" horiz-adv-x="518" 
d="M36 248q0 60 20 108.5t52.5 82t74.5 51.5t87 18q53 0 92.5 -18t66 -50t39.5 -75.5t13 -94.5q0 -20 -2 -36.5t-4 -25.5h-297q10 -57 44.5 -82.5t84.5 -25.5q53 0 107 33l49 -89q-38 -26 -84.5 -41t-91.5 -15q-53 0 -99 17.5t-80 51t-53 81.5t-19 110zM356 299q0 43 -19 70
t-64 27q-35 0 -61.5 -23.5t-34.5 -73.5h179zM212 702h116l81 -128h-90l-47 65h-4l-47 -65h-90zM445 764h109l-95 -118h-82z" />
    <glyph glyph-name="uni1EC0" unicode="&#x1ec0;" horiz-adv-x="546" 
d="M76 652h409v-124h-261v-131h222v-123h-222v-150h271v-124h-419v652zM525 770h-84l-98 120h113zM224 816h126l95 -114h-104l-52 55h-4l-52 -55h-104z" />
    <glyph glyph-name="uni1EC1" unicode="&#x1ec1;" horiz-adv-x="518" 
d="M36 248q0 60 20 108.5t52.5 82t74.5 51.5t87 18q53 0 92.5 -18t66 -50t39.5 -75.5t13 -94.5q0 -20 -2 -36.5t-4 -25.5h-297q10 -57 44.5 -82.5t84.5 -25.5q53 0 107 33l49 -89q-38 -26 -84.5 -41t-91.5 -15q-53 0 -99 17.5t-80 51t-53 81.5t-19 110zM356 299q0 43 -19 70
t-64 27q-35 0 -61.5 -23.5t-34.5 -73.5h179zM212 702h116l81 -128h-90l-47 65h-4l-47 -65h-90zM519 646h-82l-95 118h109z" />
    <glyph glyph-name="uni1EC2" unicode="&#x1ec2;" horiz-adv-x="546" 
d="M76 652h409v-124h-261v-131h222v-123h-222v-150h271v-124h-419v652zM413 797q14 3 23 8.5t9 18.5q0 14 -13.5 22t-51.5 11l13 60q82 -2 114.5 -24.5t32.5 -55.5q0 -44 -33.5 -63.5t-82.5 -23.5zM224 816h126l95 -114h-104l-52 55h-4l-52 -55h-104z" />
    <glyph glyph-name="uni1EC3" unicode="&#x1ec3;" horiz-adv-x="518" 
d="M36 248q0 60 20 108.5t52.5 82t74.5 51.5t87 18q53 0 92.5 -18t66 -50t39.5 -75.5t13 -94.5q0 -20 -2 -36.5t-4 -25.5h-297q10 -57 44.5 -82.5t84.5 -25.5q53 0 107 33l49 -89q-38 -26 -84.5 -41t-91.5 -15q-53 0 -99 17.5t-80 51t-53 81.5t-19 110zM356 299q0 43 -19 70
t-64 27q-35 0 -61.5 -23.5t-34.5 -73.5h179zM212 702h116l81 -128h-90l-47 65h-4l-47 -65h-90zM398 678q14 3 22 9t8 19q0 14 -13.5 22.5t-51.5 10.5l14 62q82 -2 114.5 -23t32.5 -56q0 -25 -9.5 -41.5t-25 -27t-36.5 -16.5t-45 -9z" />
    <glyph glyph-name="uni1EC4" unicode="&#x1ec4;" horiz-adv-x="546" 
d="M76 652h409v-124h-261v-131h222v-123h-222v-150h271v-124h-419v652zM224 816h126l95 -114h-104l-52 55h-4l-52 -55h-104zM138 852q6 59 32.5 86.5t59.5 27.5q18 0 32.5 -6t27.5 -13.5t23.5 -13.5t21.5 -6q27 0 36 39h65q-6 -59 -32.5 -86.5t-59.5 -27.5q-18 0 -32.5 6
t-27.5 13t-24 13t-21 6q-28 0 -36 -38h-65z" />
    <glyph glyph-name="uni1EC5" unicode="&#x1ec5;" horiz-adv-x="518" 
d="M36 248q0 60 20 108.5t52.5 82t74.5 51.5t87 18q53 0 92.5 -18t66 -50t39.5 -75.5t13 -94.5q0 -20 -2 -36.5t-4 -25.5h-297q10 -57 44.5 -82.5t84.5 -25.5q53 0 107 33l49 -89q-38 -26 -84.5 -41t-91.5 -15q-53 0 -99 17.5t-80 51t-53 81.5t-19 110zM356 299q0 43 -19 70
t-64 27q-35 0 -61.5 -23.5t-34.5 -73.5h179zM203 684h134l80 -111h-95l-50 59h-4l-50 -59h-95zM124 720q7 60 32.5 87t58.5 27q20 0 34.5 -6t26 -13t21 -13t20.5 -6q28 0 35 38h64q-7 -59 -32.5 -86.5t-58.5 -27.5q-20 0 -34.5 6t-26 13t-21.5 13t-20 6q-28 0 -35 -38h-64z
" />
    <glyph glyph-name="uni1EC6" unicode="&#x1ec6;" horiz-adv-x="546" 
d="M76 652h409v-124h-261v-131h222v-123h-222v-150h271v-124h-419v652zM119 702l96 120h144l96 -120h-113l-53 61h-4l-53 -61h-113zM294 -226q-36 0 -58.5 21.5t-22.5 55.5t22.5 55.5t58.5 21.5t58.5 -21.5t22.5 -55.5t-22.5 -55.5t-58.5 -21.5z" />
    <glyph glyph-name="uni1EC7" unicode="&#x1ec7;" horiz-adv-x="518" 
d="M36 248q0 60 20 108.5t52.5 82t74.5 51.5t87 18q53 0 92.5 -18t66 -50t39.5 -75.5t13 -94.5q0 -20 -2 -36.5t-4 -25.5h-297q10 -57 44.5 -82.5t84.5 -25.5q53 0 107 33l49 -89q-38 -26 -84.5 -41t-91.5 -15q-53 0 -99 17.5t-80 51t-53 81.5t-19 110zM356 299q0 43 -19 70
t-64 27q-35 0 -61.5 -23.5t-34.5 -73.5h179zM212 724h116l96 -150h-99l-53 79h-4l-53 -79h-99zM269 -226q-36 0 -58.5 21.5t-22.5 55.5t22.5 55.5t58.5 21.5t58.5 -21.5t22.5 -55.5t-22.5 -55.5t-58.5 -21.5z" />
    <glyph glyph-name="uni1EC8" unicode="&#x1ec8;" horiz-adv-x="300" 
d="M76 652h148v-652h-148v652zM104 749q18 4 31 10t13 20t-18 22.5t-61 11.5l17 73q92 -2 130 -26.5t38 -64.5q0 -26 -11 -44.5t-30 -31t-44.5 -19.5t-53.5 -9z" />
    <glyph glyph-name="uni1EC9" unicode="&#x1ec9;" horiz-adv-x="276" 
d="M65 496h147v-496h-147v496zM92 615q18 3 31 9.5t13 20.5t-18 22.5t-61 10.5l17 74q92 -3 130 -27.5t38 -64.5q0 -26 -11 -44.5t-30 -31t-44.5 -19t-53.5 -8.5z" />
    <glyph glyph-name="uni1ECA" unicode="&#x1eca;" horiz-adv-x="300" 
d="M76 652h148v-652h-148v652zM150 -226q-36 0 -58.5 21.5t-22.5 55.5t22.5 55.5t58.5 21.5t58.5 -21.5t22.5 -55.5t-22.5 -55.5t-58.5 -21.5z" />
    <glyph glyph-name="uni1ECB" unicode="&#x1ecb;" horiz-adv-x="276" 
d="M138 569q-37 0 -61 21.5t-24 55.5t24 55t61 21q38 0 61.5 -21t23.5 -55t-23.5 -55.5t-61.5 -21.5zM65 496h147v-496h-147v496zM138 -226q-36 0 -58.5 21.5t-22.5 55.5t22.5 55.5t58.5 21.5t58.5 -21.5t22.5 -55.5t-22.5 -55.5t-58.5 -21.5z" />
    <glyph glyph-name="uni1ECC" unicode="&#x1ecc;" horiz-adv-x="683" 
d="M341 -12q-66 0 -120.5 23.5t-93.5 67.5t-60.5 107t-21.5 143t21.5 142.5t60.5 105t93.5 65t120.5 22.5t120.5 -22.5t93.5 -65.5t60.5 -105.5t21.5 -141.5q0 -80 -21.5 -143t-60.5 -107t-93.5 -67.5t-120.5 -23.5zM341 115q67 0 106 57.5t39 156.5q0 98 -39 153t-106 55
q-66 0 -105.5 -55t-39.5 -153q0 -49 10.5 -88.5t29 -67.5t45.5 -43t60 -15zM341 -226q-36 0 -58.5 21.5t-22.5 55.5t22.5 55.5t58.5 21.5t58.5 -21.5t22.5 -55.5t-22.5 -55.5t-58.5 -21.5z" />
    <glyph glyph-name="uni1ECD" unicode="&#x1ecd;" horiz-adv-x="555" 
d="M36 248q0 62 20 110.5t53.5 81.5t77.5 50.5t91 17.5t90.5 -17.5t77 -50.5t53.5 -81.5t20 -110.5t-20 -110.5t-53.5 -81.5t-77 -50.5t-90.5 -17.5t-91 17.5t-77.5 50.5t-53.5 81.5t-20 110.5zM187 248q0 -65 22.5 -103t68.5 -38q45 0 68 38t23 103t-23 103t-68 38
q-46 0 -68.5 -38t-22.5 -103zM277 -226q-36 0 -58.5 21.5t-22.5 55.5t22.5 55.5t58.5 21.5t58.5 -21.5t22.5 -55.5t-22.5 -55.5t-58.5 -21.5z" />
    <glyph glyph-name="uni1ECE" unicode="&#x1ece;" horiz-adv-x="683" 
d="M341 -12q-66 0 -120.5 23.5t-93.5 67.5t-60.5 107t-21.5 143t21.5 142.5t60.5 105t93.5 65t120.5 22.5t120.5 -22.5t93.5 -65.5t60.5 -105.5t21.5 -141.5q0 -80 -21.5 -143t-60.5 -107t-93.5 -67.5t-120.5 -23.5zM341 115q67 0 106 57.5t39 156.5q0 98 -39 153t-106 55
q-66 0 -105.5 -55t-39.5 -153q0 -49 10.5 -88.5t29 -67.5t45.5 -43t60 -15zM295 749q18 4 31 10t13 20t-18 22.5t-61 11.5l17 73q92 -2 130 -26.5t38 -64.5q0 -26 -11 -44.5t-30 -31t-44.5 -19.5t-53.5 -9z" />
    <glyph glyph-name="uni1ECF" unicode="&#x1ecf;" horiz-adv-x="555" 
d="M36 248q0 62 20 110.5t53.5 81.5t77.5 50.5t91 17.5t90.5 -17.5t77 -50.5t53.5 -81.5t20 -110.5t-20 -110.5t-53.5 -81.5t-77 -50.5t-90.5 -17.5t-91 17.5t-77.5 50.5t-53.5 81.5t-20 110.5zM187 248q0 -65 22.5 -103t68.5 -38q45 0 68 38t23 103t-23 103t-68 38
q-46 0 -68.5 -38t-22.5 -103zM231 615q18 3 31 9.5t13 20.5t-18 22.5t-61 10.5l17 74q92 -3 130 -27.5t38 -64.5q0 -26 -11 -44.5t-30 -31t-44.5 -19t-53.5 -8.5z" />
    <glyph glyph-name="uni1ED0" unicode="&#x1ed0;" horiz-adv-x="683" 
d="M341 -12q-66 0 -120.5 23.5t-93.5 67.5t-60.5 107t-21.5 143t21.5 142.5t60.5 105t93.5 65t120.5 22.5t120.5 -22.5t93.5 -65.5t60.5 -105.5t21.5 -141.5q0 -80 -21.5 -143t-60.5 -107t-93.5 -67.5t-120.5 -23.5zM341 115q67 0 106 57.5t39 156.5q0 98 -39 153t-106 55
q-66 0 -105.5 -55t-39.5 -153q0 -49 10.5 -88.5t29 -67.5t45.5 -43t60 -15zM522 890h114l-99 -120h-83zM278 816h126l95 -114h-104l-52 55h-4l-52 -55h-104z" />
    <glyph glyph-name="uni1ED1" unicode="&#x1ed1;" horiz-adv-x="555" 
d="M36 248q0 62 20 110.5t53.5 81.5t77.5 50.5t91 17.5t90.5 -17.5t77 -50.5t53.5 -81.5t20 -110.5t-20 -110.5t-53.5 -81.5t-77 -50.5t-90.5 -17.5t-91 17.5t-77.5 50.5t-53.5 81.5t-20 110.5zM187 248q0 -65 22.5 -103t68.5 -38q45 0 68 38t23 103t-23 103t-68 38
q-46 0 -68.5 -38t-22.5 -103zM219 702h116l81 -128h-90l-47 65h-4l-47 -65h-90zM452 764h109l-95 -118h-82z" />
    <glyph glyph-name="uni1ED2" unicode="&#x1ed2;" horiz-adv-x="683" 
d="M341 -12q-66 0 -120.5 23.5t-93.5 67.5t-60.5 107t-21.5 143t21.5 142.5t60.5 105t93.5 65t120.5 22.5t120.5 -22.5t93.5 -65.5t60.5 -105.5t21.5 -141.5q0 -80 -21.5 -143t-60.5 -107t-93.5 -67.5t-120.5 -23.5zM341 115q67 0 106 57.5t39 156.5q0 98 -39 153t-106 55
q-66 0 -105.5 -55t-39.5 -153q0 -49 10.5 -88.5t29 -67.5t45.5 -43t60 -15zM579 770h-84l-98 120h113zM278 816h126l95 -114h-104l-52 55h-4l-52 -55h-104z" />
    <glyph glyph-name="uni1ED3" unicode="&#x1ed3;" horiz-adv-x="555" 
d="M36 248q0 62 20 110.5t53.5 81.5t77.5 50.5t91 17.5t90.5 -17.5t77 -50.5t53.5 -81.5t20 -110.5t-20 -110.5t-53.5 -81.5t-77 -50.5t-90.5 -17.5t-91 17.5t-77.5 50.5t-53.5 81.5t-20 110.5zM187 248q0 -65 22.5 -103t68.5 -38q45 0 68 38t23 103t-23 103t-68 38
q-46 0 -68.5 -38t-22.5 -103zM219 702h116l81 -128h-90l-47 65h-4l-47 -65h-90zM526 646h-82l-95 118h109z" />
    <glyph glyph-name="uni1ED4" unicode="&#x1ed4;" horiz-adv-x="683" 
d="M341 -12q-66 0 -120.5 23.5t-93.5 67.5t-60.5 107t-21.5 143t21.5 142.5t60.5 105t93.5 65t120.5 22.5t120.5 -22.5t93.5 -65.5t60.5 -105.5t21.5 -141.5q0 -80 -21.5 -143t-60.5 -107t-93.5 -67.5t-120.5 -23.5zM341 115q67 0 106 57.5t39 156.5q0 98 -39 153t-106 55
q-66 0 -105.5 -55t-39.5 -153q0 -49 10.5 -88.5t29 -67.5t45.5 -43t60 -15zM467 797q14 3 23 8.5t9 18.5q0 14 -13.5 22t-51.5 11l13 60q82 -2 114.5 -24.5t32.5 -55.5q0 -44 -33.5 -63.5t-82.5 -23.5zM278 816h126l95 -114h-104l-52 55h-4l-52 -55h-104z" />
    <glyph glyph-name="uni1ED5" unicode="&#x1ed5;" horiz-adv-x="555" 
d="M36 248q0 62 20 110.5t53.5 81.5t77.5 50.5t91 17.5t90.5 -17.5t77 -50.5t53.5 -81.5t20 -110.5t-20 -110.5t-53.5 -81.5t-77 -50.5t-90.5 -17.5t-91 17.5t-77.5 50.5t-53.5 81.5t-20 110.5zM187 248q0 -65 22.5 -103t68.5 -38q45 0 68 38t23 103t-23 103t-68 38
q-46 0 -68.5 -38t-22.5 -103zM219 702h116l81 -128h-90l-47 65h-4l-47 -65h-90zM405 678q14 3 22 9t8 19q0 14 -13.5 22.5t-51.5 10.5l14 62q82 -2 114.5 -23t32.5 -56q0 -25 -9.5 -41.5t-25 -27t-36.5 -16.5t-45 -9z" />
    <glyph glyph-name="uni1ED6" unicode="&#x1ed6;" horiz-adv-x="683" 
d="M341 -12q-66 0 -120.5 23.5t-93.5 67.5t-60.5 107t-21.5 143t21.5 142.5t60.5 105t93.5 65t120.5 22.5t120.5 -22.5t93.5 -65.5t60.5 -105.5t21.5 -141.5q0 -80 -21.5 -143t-60.5 -107t-93.5 -67.5t-120.5 -23.5zM341 115q67 0 106 57.5t39 156.5q0 98 -39 153t-106 55
q-66 0 -105.5 -55t-39.5 -153q0 -49 10.5 -88.5t29 -67.5t45.5 -43t60 -15zM278 816h126l95 -114h-104l-52 55h-4l-52 -55h-104zM192 852q6 59 32.5 86.5t59.5 27.5q18 0 32.5 -6t27.5 -13.5t23.5 -13.5t21.5 -6q27 0 36 39h65q-6 -59 -32.5 -86.5t-59.5 -27.5
q-18 0 -32.5 6t-27.5 13t-24 13t-21 6q-28 0 -36 -38h-65z" />
    <glyph glyph-name="uni1ED7" unicode="&#x1ed7;" horiz-adv-x="555" 
d="M36 248q0 62 20 110.5t53.5 81.5t77.5 50.5t91 17.5t90.5 -17.5t77 -50.5t53.5 -81.5t20 -110.5t-20 -110.5t-53.5 -81.5t-77 -50.5t-90.5 -17.5t-91 17.5t-77.5 50.5t-53.5 81.5t-20 110.5zM187 248q0 -65 22.5 -103t68.5 -38q45 0 68 38t23 103t-23 103t-68 38
q-46 0 -68.5 -38t-22.5 -103zM210 684h134l80 -111h-95l-50 59h-4l-50 -59h-95zM131 720q7 60 32.5 87t58.5 27q20 0 34.5 -6t26 -13t21 -13t20.5 -6q28 0 35 38h64q-7 -59 -32.5 -86.5t-58.5 -27.5q-20 0 -34.5 6t-26 13t-21.5 13t-20 6q-28 0 -35 -38h-64z" />
    <glyph glyph-name="uni1ED8" unicode="&#x1ed8;" horiz-adv-x="683" 
d="M341 -12q-66 0 -120.5 23.5t-93.5 67.5t-60.5 107t-21.5 143t21.5 142.5t60.5 105t93.5 65t120.5 22.5t120.5 -22.5t93.5 -65.5t60.5 -105.5t21.5 -141.5q0 -80 -21.5 -143t-60.5 -107t-93.5 -67.5t-120.5 -23.5zM341 115q67 0 106 57.5t39 156.5q0 98 -39 153t-106 55
q-66 0 -105.5 -55t-39.5 -153q0 -49 10.5 -88.5t29 -67.5t45.5 -43t60 -15zM173 702l96 120h144l96 -120h-113l-53 61h-4l-53 -61h-113zM341 -226q-36 0 -58.5 21.5t-22.5 55.5t22.5 55.5t58.5 21.5t58.5 -21.5t22.5 -55.5t-22.5 -55.5t-58.5 -21.5z" />
    <glyph glyph-name="uni1ED9" unicode="&#x1ed9;" horiz-adv-x="555" 
d="M36 248q0 62 20 110.5t53.5 81.5t77.5 50.5t91 17.5t90.5 -17.5t77 -50.5t53.5 -81.5t20 -110.5t-20 -110.5t-53.5 -81.5t-77 -50.5t-90.5 -17.5t-91 17.5t-77.5 50.5t-53.5 81.5t-20 110.5zM187 248q0 -65 22.5 -103t68.5 -38q45 0 68 38t23 103t-23 103t-68 38
q-46 0 -68.5 -38t-22.5 -103zM219 724h116l96 -150h-99l-53 79h-4l-53 -79h-99zM277 -226q-36 0 -58.5 21.5t-22.5 55.5t22.5 55.5t58.5 21.5t58.5 -21.5t22.5 -55.5t-22.5 -55.5t-58.5 -21.5z" />
    <glyph glyph-name="uni1EDA" unicode="&#x1eda;" horiz-adv-x="683" 
d="M341 115q67 0 106 57.5t39 156.5q0 98 -39 153t-106 55q-66 0 -105.5 -55t-39.5 -153q0 -49 10.5 -88.5t29 -67.5t45.5 -43t60 -15zM625 784q11 -14 20 -34.5t9 -45.5q0 -49 -29 -77.5t-77 -42.5q42 -44 65.5 -107.5t23.5 -147.5q0 -80 -21.5 -143t-60.5 -107
t-93.5 -67.5t-120.5 -23.5t-120.5 23.5t-93.5 67.5t-60.5 107t-21.5 143t21.5 142.5t60.5 105t93.5 65t120.5 22.5q76 0 140 -31q29 7 44 20t15 41q0 14 -5 25.5t-10 20.5zM383 702h-117l81 120h156z" />
    <glyph glyph-name="uni1EDB" unicode="&#x1edb;" horiz-adv-x="555" 
d="M278 107q45 0 68 38t23 103t-23 103t-68 38q-46 0 -68.5 -38t-22.5 -103t22.5 -103t68.5 -38zM513 638q11 -14 20 -34.5t9 -45.5q0 -48 -27.5 -77t-69.5 -41q34 -33 54 -81t20 -111q0 -62 -20 -110.5t-53.5 -81.5t-77 -50.5t-90.5 -17.5t-91 17.5t-77.5 50.5t-53.5 81.5
t-20 110.5t20 110.5t53.5 81.5t77.5 50.5t91 17.5q25 0 48.5 -5t46.5 -14q24 5 39.5 18t15.5 41q0 14 -5 26t-10 20zM302 574h-107l89 150h142z" />
    <glyph glyph-name="uni1EDC" unicode="&#x1edc;" horiz-adv-x="683" 
d="M341 115q67 0 106 57.5t39 156.5q0 98 -39 153t-106 55q-66 0 -105.5 -55t-39.5 -153q0 -49 10.5 -88.5t29 -67.5t45.5 -43t60 -15zM625 784q11 -14 20 -34.5t9 -45.5q0 -49 -29 -77.5t-77 -42.5q42 -44 65.5 -107.5t23.5 -147.5q0 -80 -21.5 -143t-60.5 -107
t-93.5 -67.5t-120.5 -23.5t-120.5 23.5t-93.5 67.5t-60.5 107t-21.5 143t21.5 142.5t60.5 105t93.5 65t120.5 22.5q76 0 140 -31q29 7 44 20t15 41q0 14 -5 25.5t-10 20.5zM179 822h156l81 -120h-117z" />
    <glyph glyph-name="uni1EDD" unicode="&#x1edd;" horiz-adv-x="555" 
d="M278 107q45 0 68 38t23 103t-23 103t-68 38q-46 0 -68.5 -38t-22.5 -103t22.5 -103t68.5 -38zM513 638q11 -14 20 -34.5t9 -45.5q0 -48 -27.5 -77t-69.5 -41q34 -33 54 -81t20 -111q0 -62 -20 -110.5t-53.5 -81.5t-77 -50.5t-90.5 -17.5t-91 17.5t-77.5 50.5t-53.5 81.5
t-20 110.5t20 110.5t53.5 81.5t77.5 50.5t91 17.5q25 0 48.5 -5t46.5 -14q24 5 39.5 18t15.5 41q0 14 -5 26t-10 20zM128 724h142l89 -150h-107z" />
    <glyph glyph-name="uni1EDE" unicode="&#x1ede;" horiz-adv-x="683" 
d="M341 115q67 0 106 57.5t39 156.5q0 98 -39 153t-106 55q-66 0 -105.5 -55t-39.5 -153q0 -49 10.5 -88.5t29 -67.5t45.5 -43t60 -15zM625 784q11 -14 20 -34.5t9 -45.5q0 -49 -29 -77.5t-77 -42.5q42 -44 65.5 -107.5t23.5 -147.5q0 -80 -21.5 -143t-60.5 -107
t-93.5 -67.5t-120.5 -23.5t-120.5 23.5t-93.5 67.5t-60.5 107t-21.5 143t21.5 142.5t60.5 105t93.5 65t120.5 22.5q76 0 140 -31q29 7 44 20t15 41q0 14 -5 25.5t-10 20.5zM295 749q18 4 31 10t13 20t-18 22.5t-61 11.5l17 73q92 -2 130 -26.5t38 -64.5q0 -26 -11 -44.5
t-30 -31t-44.5 -19.5t-53.5 -9z" />
    <glyph glyph-name="uni1EDF" unicode="&#x1edf;" horiz-adv-x="555" 
d="M278 107q45 0 68 38t23 103t-23 103t-68 38q-46 0 -68.5 -38t-22.5 -103t22.5 -103t68.5 -38zM513 638q11 -14 20 -34.5t9 -45.5q0 -48 -27.5 -77t-69.5 -41q34 -33 54 -81t20 -111q0 -62 -20 -110.5t-53.5 -81.5t-77 -50.5t-90.5 -17.5t-91 17.5t-77.5 50.5t-53.5 81.5
t-20 110.5t20 110.5t53.5 81.5t77.5 50.5t91 17.5q25 0 48.5 -5t46.5 -14q24 5 39.5 18t15.5 41q0 14 -5 26t-10 20zM231 615q18 3 31 9.5t13 20.5t-18 22.5t-61 10.5l17 74q92 -3 130 -27.5t38 -64.5q0 -26 -11 -44.5t-30 -31t-44.5 -19t-53.5 -8.5z" />
    <glyph glyph-name="uni1EE0" unicode="&#x1ee0;" horiz-adv-x="683" 
d="M341 115q67 0 106 57.5t39 156.5q0 98 -39 153t-106 55q-66 0 -105.5 -55t-39.5 -153q0 -49 10.5 -88.5t29 -67.5t45.5 -43t60 -15zM625 784q11 -14 20 -34.5t9 -45.5q0 -49 -29 -77.5t-77 -42.5q42 -44 65.5 -107.5t23.5 -147.5q0 -80 -21.5 -143t-60.5 -107
t-93.5 -67.5t-120.5 -23.5t-120.5 23.5t-93.5 67.5t-60.5 107t-21.5 143t21.5 142.5t60.5 105t93.5 65t120.5 22.5q76 0 140 -31q29 7 44 20t15 41q0 14 -5 25.5t-10 20.5zM404 703q-20 0 -37 7t-31.5 15.5t-27 15.5t-24.5 7q-13 0 -23 -10t-15 -35h-75q8 69 38 102.5
t69 33.5q20 0 37 -7t31.5 -15.5t27 -15.5t24.5 -7q13 0 23 10t15 35h75q-8 -69 -38 -102.5t-69 -33.5z" />
    <glyph glyph-name="uni1EE1" unicode="&#x1ee1;" horiz-adv-x="555" 
d="M278 107q45 0 68 38t23 103t-23 103t-68 38q-46 0 -68.5 -38t-22.5 -103t22.5 -103t68.5 -38zM513 638q11 -14 20 -34.5t9 -45.5q0 -48 -27.5 -77t-69.5 -41q34 -33 54 -81t20 -111q0 -62 -20 -110.5t-53.5 -81.5t-77 -50.5t-90.5 -17.5t-91 17.5t-77.5 50.5t-53.5 81.5
t-20 110.5t20 110.5t53.5 81.5t77.5 50.5t91 17.5q25 0 48.5 -5t46.5 -14q24 5 39.5 18t15.5 41q0 14 -5 26t-10 20zM111 575q8 69 36 102t68 33q20 0 37 -7t31 -15t26.5 -15t23.5 -7q13 0 21 10t14 34h75q-8 -68 -36 -101.5t-68 -33.5q-20 0 -36.5 7t-31 15.5t-27 15.5
t-23.5 7q-13 0 -21 -10t-14 -35h-75v0z" />
    <glyph glyph-name="uni1EE2" unicode="&#x1ee2;" horiz-adv-x="683" 
d="M341 115q67 0 106 57.5t39 156.5q0 98 -39 153t-106 55q-66 0 -105.5 -55t-39.5 -153q0 -49 10.5 -88.5t29 -67.5t45.5 -43t60 -15zM625 784q11 -14 20 -34.5t9 -45.5q0 -49 -29 -77.5t-77 -42.5q42 -44 65.5 -107.5t23.5 -147.5q0 -80 -21.5 -143t-60.5 -107
t-93.5 -67.5t-120.5 -23.5t-120.5 23.5t-93.5 67.5t-60.5 107t-21.5 143t21.5 142.5t60.5 105t93.5 65t120.5 22.5q76 0 140 -31q29 7 44 20t15 41q0 14 -5 25.5t-10 20.5zM341 -226q-36 0 -58.5 21.5t-22.5 55.5t22.5 55.5t58.5 21.5t58.5 -21.5t22.5 -55.5t-22.5 -55.5
t-58.5 -21.5z" />
    <glyph glyph-name="uni1EE3" unicode="&#x1ee3;" horiz-adv-x="555" 
d="M278 107q45 0 68 38t23 103t-23 103t-68 38q-46 0 -68.5 -38t-22.5 -103t22.5 -103t68.5 -38zM513 638q11 -14 20 -34.5t9 -45.5q0 -48 -27.5 -77t-69.5 -41q34 -33 54 -81t20 -111q0 -62 -20 -110.5t-53.5 -81.5t-77 -50.5t-90.5 -17.5t-91 17.5t-77.5 50.5t-53.5 81.5
t-20 110.5t20 110.5t53.5 81.5t77.5 50.5t91 17.5q25 0 48.5 -5t46.5 -14q24 5 39.5 18t15.5 41q0 14 -5 26t-10 20zM277 -226q-36 0 -58.5 21.5t-22.5 55.5t22.5 55.5t58.5 21.5t58.5 -21.5t22.5 -55.5t-22.5 -55.5t-58.5 -21.5z" />
    <glyph glyph-name="uni1EE4" unicode="&#x1ee4;" horiz-adv-x="663" 
d="M73 652h147v-365q0 -96 29 -134t84 -38t85.5 38t30.5 134v365h142v-350q0 -164 -65.5 -239t-192.5 -75t-193.5 75t-66.5 239v350zM331 -226q-36 0 -58.5 21.5t-22.5 55.5t22.5 55.5t58.5 21.5t58.5 -21.5t22.5 -55.5t-22.5 -55.5t-58.5 -21.5z" />
    <glyph glyph-name="uni1EE5" unicode="&#x1ee5;" horiz-adv-x="568" 
d="M60 496h147v-289q0 -54 15 -74t47 -20q28 0 47 13t41 42v328h147v-496h-120l-11 69h-3q-32 -38 -68.5 -59.5t-87.5 -21.5q-81 0 -117.5 53t-36.5 147v308zM303 -226q-36 0 -58.5 21.5t-22.5 55.5t22.5 55.5t58.5 21.5t58.5 -21.5t22.5 -55.5t-22.5 -55.5t-58.5 -21.5z
" />
    <glyph glyph-name="uni1EE6" unicode="&#x1ee6;" horiz-adv-x="663" 
d="M73 652h147v-365q0 -96 29 -134t84 -38t85.5 38t30.5 134v365h142v-350q0 -164 -65.5 -239t-192.5 -75t-193.5 75t-66.5 239v350zM285 749q18 4 31 10t13 20t-18 22.5t-61 11.5l17 73q92 -2 130 -26.5t38 -64.5q0 -26 -11 -44.5t-30 -31t-44.5 -19.5t-53.5 -9z" />
    <glyph glyph-name="uni1EE7" unicode="&#x1ee7;" horiz-adv-x="568" 
d="M60 496h147v-289q0 -54 15 -74t47 -20q28 0 47 13t41 42v328h147v-496h-120l-11 69h-3q-32 -38 -68.5 -59.5t-87.5 -21.5q-81 0 -117.5 53t-36.5 147v308zM239 615q18 3 31 9.5t13 20.5t-18 22.5t-61 10.5l17 74q92 -3 130 -27.5t38 -64.5q0 -26 -11 -44.5t-30 -31
t-44.5 -19t-53.5 -8.5z" />
    <glyph glyph-name="uni1EE8" unicode="&#x1ee8;" horiz-adv-x="681" 
d="M685 804q12 -14 21 -34.5t9 -45.5q0 -56 -36 -86t-88 -40v-296q0 -164 -65.5 -239t-192.5 -75t-193.5 75t-66.5 239v350h147v-365q0 -96 29 -134t84 -38t85.5 38t30.5 134v365h70q15 1 29.5 3.5t26 9t19 18t7.5 31.5q0 14 -5 25.5t-11 20.5zM373 702h-117l81 120h156z
" />
    <glyph glyph-name="uni1EE9" unicode="&#x1ee9;" horiz-adv-x="568" 
d="M569 648q11 -14 20 -34.5t9 -45.5q0 -48 -27 -76.5t-67 -40.5v-451h-120l-11 69h-3q-32 -38 -68.5 -59.5t-87.5 -21.5q-81 0 -117.5 53t-36.5 147v308h147v-289q0 -54 15 -74t47 -20q28 0 47 13t41 42v328h46q14 1 28.5 3.5t26 9t19 18t7.5 31.5q0 14 -5 26t-10 20z
M299 574h-107l89 150h142z" />
    <glyph glyph-name="uni1EEA" unicode="&#x1eea;" horiz-adv-x="681" 
d="M685 804q12 -14 21 -34.5t9 -45.5q0 -56 -36 -86t-88 -40v-296q0 -164 -65.5 -239t-192.5 -75t-193.5 75t-66.5 239v350h147v-365q0 -96 29 -134t84 -38t85.5 38t30.5 134v365h70q15 1 29.5 3.5t26 9t19 18t7.5 31.5q0 14 -5 25.5t-11 20.5zM169 822h156l81 -120h-117z
" />
    <glyph glyph-name="uni1EEB" unicode="&#x1eeb;" horiz-adv-x="568" 
d="M569 648q11 -14 20 -34.5t9 -45.5q0 -48 -27 -76.5t-67 -40.5v-451h-120l-11 69h-3q-32 -38 -68.5 -59.5t-87.5 -21.5q-81 0 -117.5 53t-36.5 147v308h147v-289q0 -54 15 -74t47 -20q28 0 47 13t41 42v328h46q14 1 28.5 3.5t26 9t19 18t7.5 31.5q0 14 -5 26t-10 20z
M125 724h142l89 -150h-107z" />
    <glyph glyph-name="uni1EEC" unicode="&#x1eec;" horiz-adv-x="681" 
d="M685 804q12 -14 21 -34.5t9 -45.5q0 -56 -36 -86t-88 -40v-296q0 -164 -65.5 -239t-192.5 -75t-193.5 75t-66.5 239v350h147v-365q0 -96 29 -134t84 -38t85.5 38t30.5 134v365h70q15 1 29.5 3.5t26 9t19 18t7.5 31.5q0 14 -5 25.5t-11 20.5zM285 749q18 4 31 10t13 20
t-18 22.5t-61 11.5l17 73q92 -2 130 -26.5t38 -64.5q0 -26 -11 -44.5t-30 -31t-44.5 -19.5t-53.5 -9z" />
    <glyph glyph-name="uni1EED" unicode="&#x1eed;" horiz-adv-x="568" 
d="M569 648q11 -14 20 -34.5t9 -45.5q0 -48 -27 -76.5t-67 -40.5v-451h-120l-11 69h-3q-32 -38 -68.5 -59.5t-87.5 -21.5q-81 0 -117.5 53t-36.5 147v308h147v-289q0 -54 15 -74t47 -20q28 0 47 13t41 42v328h46q14 1 28.5 3.5t26 9t19 18t7.5 31.5q0 14 -5 26t-10 20z
M228 615q18 3 31 9.5t13 20.5t-18 22.5t-61 10.5l17 74q92 -3 130 -27.5t38 -64.5q0 -26 -11 -44.5t-30 -31t-44.5 -19t-53.5 -8.5z" />
    <glyph glyph-name="uni1EEE" unicode="&#x1eee;" horiz-adv-x="681" 
d="M685 804q12 -14 21 -34.5t9 -45.5q0 -56 -36 -86t-88 -40v-296q0 -164 -65.5 -239t-192.5 -75t-193.5 75t-66.5 239v350h147v-365q0 -96 29 -134t84 -38t85.5 38t30.5 134v365h70q15 1 29.5 3.5t26 9t19 18t7.5 31.5q0 14 -5 25.5t-11 20.5zM394 703q-20 0 -37 7
t-31.5 15.5t-27 15.5t-24.5 7q-13 0 -23 -10t-15 -35h-75q8 69 38 102.5t69 33.5q20 0 37 -7t31.5 -15.5t27 -15.5t24.5 -7q13 0 23 10t15 35h75q-8 -69 -38 -102.5t-69 -33.5z" />
    <glyph glyph-name="uni1EEF" unicode="&#x1eef;" horiz-adv-x="568" 
d="M569 648q11 -14 20 -34.5t9 -45.5q0 -48 -27 -76.5t-67 -40.5v-451h-120l-11 69h-3q-32 -38 -68.5 -59.5t-87.5 -21.5q-81 0 -117.5 53t-36.5 147v308h147v-289q0 -54 15 -74t47 -20q28 0 47 13t41 42v328h46q14 1 28.5 3.5t26 9t19 18t7.5 31.5q0 14 -5 26t-10 20z
M108 575q8 69 36 102t68 33q20 0 37 -7t31 -15t26.5 -15t23.5 -7q13 0 21 10t14 34h75q-8 -68 -36 -101.5t-68 -33.5q-20 0 -36.5 7t-31 15.5t-27 15.5t-23.5 7q-13 0 -21 -10t-14 -35h-75v0z" />
    <glyph glyph-name="uni1EF0" unicode="&#x1ef0;" horiz-adv-x="681" 
d="M685 804q12 -14 21 -34.5t9 -45.5q0 -56 -36 -86t-88 -40v-296q0 -164 -65.5 -239t-192.5 -75t-193.5 75t-66.5 239v350h147v-365q0 -96 29 -134t84 -38t85.5 38t30.5 134v365h70q15 1 29.5 3.5t26 9t19 18t7.5 31.5q0 14 -5 25.5t-11 20.5zM331 -226q-36 0 -58.5 21.5
t-22.5 55.5t22.5 55.5t58.5 21.5t58.5 -21.5t22.5 -55.5t-22.5 -55.5t-58.5 -21.5z" />
    <glyph glyph-name="uni1EF1" unicode="&#x1ef1;" horiz-adv-x="568" 
d="M569 648q11 -14 20 -34.5t9 -45.5q0 -48 -27 -76.5t-67 -40.5v-451h-120l-11 69h-3q-32 -38 -68.5 -59.5t-87.5 -21.5q-81 0 -117.5 53t-36.5 147v308h147v-289q0 -54 15 -74t47 -20q28 0 47 13t41 42v328h46q14 1 28.5 3.5t26 9t19 18t7.5 31.5q0 14 -5 26t-10 20z
M292 -226q-36 0 -58.5 21.5t-22.5 55.5t22.5 55.5t58.5 21.5t58.5 -21.5t22.5 -55.5t-22.5 -55.5t-58.5 -21.5z" />
    <glyph glyph-name="Ygrave" unicode="&#x1ef2;" horiz-adv-x="524" 
d="M188 232l-196 420h157l59 -150q13 -37 26 -71.5t27 -72.5h4q14 38 27.5 72.5t27.5 71.5l58 150h154l-197 -420v-232h-147v232zM100 822h156l81 -120h-117z" />
    <glyph glyph-name="ygrave" unicode="&#x1ef3;" horiz-adv-x="521" 
d="M76 -72q7 -2 16 -4t17 -2q37 0 57 18t30 47l7 26l-191 483h148l71 -213q11 -34 20 -69t19 -72h4q8 35 16.5 70.5t17.5 70.5l60 213h141l-172 -501q-18 -47 -37.5 -82.5t-45 -59t-58 -35.5t-76.5 -12q-23 0 -39 2.5t-31 7.5l26 112v0zM117 724h142l89 -150h-107z" />
    <glyph glyph-name="uni1EF4" unicode="&#x1ef4;" horiz-adv-x="524" 
d="M188 232l-196 420h157l59 -150q13 -37 26 -71.5t27 -72.5h4q14 38 27.5 72.5t27.5 71.5l58 150h154l-197 -420v-232h-147v232zM264 -226q-36 0 -58.5 21.5t-22.5 55.5t22.5 55.5t58.5 21.5t58.5 -21.5t22.5 -55.5t-22.5 -55.5t-58.5 -21.5z" />
    <glyph glyph-name="uni1EF5" unicode="&#x1ef5;" horiz-adv-x="521" 
d="M76 -72q7 -2 16 -4t17 -2q37 0 57 18t30 47l7 26l-191 483h148l71 -213q11 -34 20 -69t19 -72h4q8 35 16.5 70.5t17.5 70.5l60 213h141l-172 -501q-18 -47 -37.5 -82.5t-45 -59t-58 -35.5t-76.5 -12q-23 0 -39 2.5t-31 7.5l26 112v0zM446 -218q-36 0 -58.5 21.5
t-22.5 55.5t22.5 55.5t58.5 21.5t58.5 -21.5t22.5 -55.5t-22.5 -55.5t-58.5 -21.5z" />
    <glyph glyph-name="uni1EF6" unicode="&#x1ef6;" horiz-adv-x="524" 
d="M188 232l-196 420h157l59 -150q13 -37 26 -71.5t27 -72.5h4q14 38 27.5 72.5t27.5 71.5l58 150h154l-197 -420v-232h-147v232zM216 749q18 4 31 10t13 20t-18 22.5t-61 11.5l17 73q92 -2 130 -26.5t38 -64.5q0 -26 -11 -44.5t-30 -31t-44.5 -19.5t-53.5 -9z" />
    <glyph glyph-name="uni1EF7" unicode="&#x1ef7;" horiz-adv-x="521" 
d="M76 -72q7 -2 16 -4t17 -2q37 0 57 18t30 47l7 26l-191 483h148l71 -213q11 -34 20 -69t19 -72h4q8 35 16.5 70.5t17.5 70.5l60 213h141l-172 -501q-18 -47 -37.5 -82.5t-45 -59t-58 -35.5t-76.5 -12q-23 0 -39 2.5t-31 7.5l26 112v0zM220 615q18 3 31 9.5t13 20.5
t-18 22.5t-61 10.5l17 74q92 -3 130 -27.5t38 -64.5q0 -26 -11 -44.5t-30 -31t-44.5 -19t-53.5 -8.5z" />
    <glyph glyph-name="uni1EF8" unicode="&#x1ef8;" horiz-adv-x="524" 
d="M188 232l-196 420h157l59 -150q13 -37 26 -71.5t27 -72.5h4q14 38 27.5 72.5t27.5 71.5l58 150h154l-197 -420v-232h-147v232zM325 703q-20 0 -37 7t-31.5 15.5t-27 15.5t-24.5 7q-13 0 -23 -10t-15 -35h-75q8 69 38 102.5t69 33.5q20 0 37 -7t31.5 -15.5t27 -15.5
t24.5 -7q13 0 23 10t15 35h75q-8 -69 -38 -102.5t-69 -33.5z" />
    <glyph glyph-name="uni1EF9" unicode="&#x1ef9;" horiz-adv-x="521" 
d="M76 -72q7 -2 16 -4t17 -2q37 0 57 18t30 47l7 26l-191 483h148l71 -213q11 -34 20 -69t19 -72h4q8 35 16.5 70.5t17.5 70.5l60 213h141l-172 -501q-18 -47 -37.5 -82.5t-45 -59t-58 -35.5t-76.5 -12q-23 0 -39 2.5t-31 7.5l26 112v0zM100 575q8 69 36 102t68 33
q20 0 37 -7t31 -15t26.5 -15t23.5 -7q13 0 21 10t14 34h75q-8 -68 -36 -101.5t-68 -33.5q-20 0 -36.5 7t-31 15.5t-27 15.5t-23.5 7q-13 0 -21 -10t-14 -35h-75v0z" />
    <glyph glyph-name="uni2007" unicode="&#x2007;" horiz-adv-x="528" 
 />
    <glyph glyph-name="figuredash" unicode="&#x2012;" horiz-adv-x="528" 
d="M43 300h442v-94h-442v94z" />
    <glyph glyph-name="endash" unicode="&#x2013;" horiz-adv-x="480" 
d="M43 300h394v-94h-394v94z" />
    <glyph glyph-name="emdash" unicode="&#x2014;" horiz-adv-x="800" 
d="M43 300h714v-94h-714v94z" />
    <glyph glyph-name="uni2015" unicode="&#x2015;" horiz-adv-x="800" 
d="M43 300h714v-94h-714v94z" />
    <glyph glyph-name="quoteleft" unicode="&#x2018;" horiz-adv-x="300" 
d="M229 619q-45 -23 -67.5 -52.5t-22.5 -74.5q3 1 10 1q32 0 54.5 -19.5t22.5 -53.5q0 -38 -22 -60t-55 -22q-47 0 -70.5 34.5t-23.5 96.5q0 71 35 125t107 89z" />
    <glyph glyph-name="quoteright" unicode="&#x2019;" horiz-adv-x="300" 
d="M71 416q45 23 67.5 52.5t22.5 74.5q-3 -1 -9 -1q-32 0 -54.5 19.5t-22.5 53.5q0 38 21.5 60t55.5 22q46 0 70 -34t24 -97q0 -71 -35.5 -125t-107.5 -89z" />
    <glyph glyph-name="quotesinglbase" unicode="&#x201a;" horiz-adv-x="300" 
d="M71 -104q45 23 67.5 52.5t22.5 74.5q-3 -1 -9 -1q-32 0 -54.5 19.5t-22.5 53.5q0 38 21.5 60t55.5 22q46 0 70 -34t24 -97q0 -71 -35.5 -125t-107.5 -89z" />
    <glyph glyph-name="quotedblleft" unicode="&#x201c;" horiz-adv-x="536" 
d="M229 619q-45 -23 -67.5 -52.5t-22.5 -74.5q3 1 10 1q32 0 54.5 -19.5t22.5 -53.5q0 -38 -22 -60t-55 -22q-47 0 -70.5 34.5t-23.5 96.5q0 71 35 125t107 89zM465 619q-45 -23 -67.5 -52.5t-22.5 -74.5q3 1 10 1q32 0 54.5 -19.5t22.5 -53.5q0 -38 -22 -60t-55 -22
q-47 0 -70.5 34.5t-23.5 96.5q0 71 35 125t107 89z" />
    <glyph glyph-name="quotedblright" unicode="&#x201d;" horiz-adv-x="536" 
d="M71 416q45 23 67.5 52.5t22.5 74.5q-3 -1 -9 -1q-32 0 -54.5 19.5t-22.5 53.5q0 38 21.5 60t55.5 22q46 0 70 -34t24 -97q0 -71 -35.5 -125t-107.5 -89zM307 416q45 23 67.5 52.5t22.5 74.5q-3 -1 -9 -1q-32 0 -54.5 19.5t-22.5 53.5q0 38 21.5 60t55.5 22q46 0 70 -34
t24 -97q0 -71 -35.5 -125t-107.5 -89z" />
    <glyph glyph-name="quotedblbase" unicode="&#x201e;" horiz-adv-x="536" 
d="M71 -104q45 23 67.5 52.5t22.5 74.5q-3 -1 -9 -1q-32 0 -54.5 19.5t-22.5 53.5q0 38 21.5 60t55.5 22q46 0 70 -34t24 -97q0 -71 -35.5 -125t-107.5 -89zM307 -104q45 23 67.5 52.5t22.5 74.5q-3 -1 -9 -1q-32 0 -54.5 19.5t-22.5 53.5q0 38 21.5 60t55.5 22q46 0 70 -34
t24 -97q0 -71 -35.5 -125t-107.5 -89z" />
    <glyph glyph-name="dagger" unicode="&#x2020;" horiz-adv-x="510" 
d="M205 438l-161 -8v118l161 -9l-9 173h118l-9 -173l161 9v-118l-161 8l9 -518h-118z" />
    <glyph glyph-name="daggerdbl" unicode="&#x2021;" horiz-adv-x="510" 
d="M44 202l161 -12l-9 126l9 126l-161 -12v118l161 -9l-9 173h118l-9 -173l161 9v-118l-161 12l9 -126l-9 -126l161 12v-118l-161 9l9 -173h-118l9 173l-161 -9v118z" />
    <glyph glyph-name="bullet" unicode="&#x2022;" horiz-adv-x="345" 
d="M172 123q-28 0 -52 10.5t-42 29.5t-28 44t-10 55t10 55.5t28 44t42 29t52 10.5t52.5 -10.5t42.5 -29t28 -44t10 -55.5t-10 -55t-28 -44t-42.5 -29.5t-52.5 -10.5z" />
    <glyph glyph-name="ellipsis" unicode="&#x2026;" horiz-adv-x="977" 
d="M76 80q0 40 25.5 66.5t63.5 26.5t63.5 -26.5t25.5 -66.5q0 -39 -25.5 -65.5t-63.5 -26.5t-63.5 26.5t-25.5 65.5zM407 80q0 40 25.5 66.5t63.5 26.5t63.5 -26.5t25.5 -66.5q0 -39 -25.5 -65.5t-63.5 -26.5t-63.5 26.5t-25.5 65.5zM738 80q0 40 25.5 66.5t63.5 26.5
t63.5 -26.5t25.5 -66.5q0 -39 -25.5 -65.5t-63.5 -26.5t-63.5 26.5t-25.5 65.5z" />
    <glyph glyph-name="perthousand" unicode="&#x2030;" horiz-adv-x="1249" 
d="M210 -12l352 676h85l-352 -676h-85zM188 250q-35 0 -65 14t-51.5 41t-33.5 65.5t-12 87.5t12 87t33.5 64.5t51.5 40.5t65 14t65 -14t51.5 -40.5t34 -64.5t12.5 -87t-12.5 -87.5t-34 -65.5t-51.5 -41t-65 -14zM188 332q25 0 42.5 28t17.5 98q0 69 -17.5 96.5t-42.5 27.5
t-42.5 -27.5t-17.5 -96.5q0 -70 17.5 -98t42.5 -28zM668 -12q-35 0 -65 14t-51.5 41t-33.5 65.5t-12 87.5t12 87t33.5 64.5t51.5 40.5t65 14q36 0 65.5 -14t51.5 -40.5t34 -64.5t12 -87t-12 -87.5t-34 -65.5t-51.5 -41t-65.5 -14zM668 70q25 0 43 28t18 98t-18 97t-43 27
t-42.5 -27t-17.5 -97t17.5 -98t42.5 -28zM1061 -12q-36 0 -65.5 14t-51.5 41t-34 65.5t-12 87.5t12 87t34 64.5t51.5 40.5t65.5 14q35 0 65 -14t51.5 -40.5t33.5 -64.5t12 -87t-12 -87.5t-33.5 -65.5t-51.5 -41t-65 -14zM1061 70q25 0 42.5 28t17.5 98t-17.5 97t-42.5 27
t-43 -27t-18 -97t18 -98t43 -28z" />
    <glyph glyph-name="uni2032" unicode="&#x2032;" horiz-adv-x="300" 
d="M101 686h147l-26 -145l-47 -186h-95z" />
    <glyph glyph-name="uni2033" unicode="&#x2033;" horiz-adv-x="537" 
d="M101 686h147l-26 -145l-47 -186h-95zM338 686h147l-26 -145l-47 -186h-95z" />
    <glyph glyph-name="guilsinglleft" unicode="&#x2039;" horiz-adv-x="292" 
d="M49 200v104l134 144l55 -44l-111 -152l111 -152l-55 -44z" />
    <glyph glyph-name="guilsinglright" unicode="&#x203a;" horiz-adv-x="292" 
d="M165 252l-111 152l55 44l134 -144v-104l-134 -144l-55 44z" />
    <glyph glyph-name="fraction" unicode="&#x2044;" horiz-adv-x="96" 
d="M-171 -12l352 676h85l-352 -676h-85z" />
    <glyph glyph-name="zero.sups" unicode="&#x2070;" horiz-adv-x="376" 
d="M188 428q-35 0 -65 14t-51.5 41t-33.5 65.5t-12 87.5t12 87t33.5 64.5t51.5 40.5t65 14t65 -14t51.5 -40.5t34 -64.5t12.5 -87t-12.5 -87.5t-34 -65.5t-51.5 -41t-65 -14zM188 510q25 0 42.5 28t17.5 98t-17.5 97t-42.5 27t-42.5 -27t-17.5 -97t17.5 -98t42.5 -28z" />
    <glyph glyph-name="i.sups" unicode="&#x2071;" horiz-adv-x="188" 
d="M94 634q-26 0 -42.5 15t-16.5 38t16.5 37.5t42.5 14.5t42.5 -14.5t16.5 -37.5t-16.5 -38t-42.5 -15zM42 589h104v-329h-104v329z" />
    <glyph glyph-name="four.sups" unicode="&#x2074;" horiz-adv-x="376" 
d="M214 597v41l6 117h-4l-40 -77l-42 -81h80zM368 527h-58v-87h-96v87h-179v54l141 249h134v-233h58v-70z" />
    <glyph glyph-name="five.sups" unicode="&#x2075;" horiz-adv-x="376" 
d="M92 558q19 -25 38 -36.5t45 -11.5q25 0 41 17.5t16 41.5q0 29 -17.5 43.5t-41.5 14.5q-17 0 -30.5 -5.5t-27.5 -17.5l-46 32l17 194h236v-91h-151l-6 -54q13 3 25.5 4.5t20.5 1.5q26 0 49 -8.5t40.5 -25t27.5 -40t10 -53.5q0 -29 -11 -54t-31.5 -43t-48 -28.5
t-60.5 -10.5q-53 0 -93.5 20.5t-66.5 58.5z" />
    <glyph glyph-name="six.sups" unicode="&#x2076;" horiz-adv-x="376" 
d="M197 510q19 0 33 12.5t14 40.5q0 53 -51 53q-30 0 -58 -28q5 -42 22.5 -60t39.5 -18zM291 734q-14 11 -30 18.5t-36 7.5q-43 0 -64 -28t-26 -77q36 34 83 34q57 0 89.5 -33t32.5 -90q0 -30 -10.5 -55t-29 -43.5t-44 -29t-54.5 -10.5q-80 0 -123 56t-43 149q0 46 12 84.5
t35.5 66.5t57 43t77.5 15q42 0 70 -13t45 -28z" />
    <glyph glyph-name="seven.sups" unicode="&#x2077;" horiz-adv-x="376" 
d="M117 440q3 45 10.5 83t20.5 73.5t31.5 70t44.5 73.5h-174v90h294v-58q-33 -42 -54 -81t-33 -78t-17.5 -81.5t-8.5 -91.5h-114v0z" />
    <glyph glyph-name="eight.sups" unicode="&#x2078;" horiz-adv-x="376" 
d="M136 550q0 -21 14.5 -35.5t37.5 -14.5q22 0 37 14t15 34q0 23 -20.5 34t-49.5 25q-34 -23 -34 -57zM204 678q25 24 25 50q0 19 -12 29.5t-30 10.5q-17 0 -28.5 -10t-11.5 -26q0 -21 16.5 -32.5t40.5 -21.5zM38 539q0 34 22.5 60t49.5 41v4q-26 18 -42 39.5t-16 51.5
q0 25 10.5 45t29 33.5t43.5 21t53 7.5q29 0 54 -7.5t43.5 -21t29 -33.5t10.5 -45q0 -28 -17.5 -50t-40.5 -36v-4q29 -16 49.5 -42t20.5 -63q0 -23 -11 -43.5t-31 -35.5t-47 -24t-60 -9t-60.5 9t-47.5 24t-31 35t-11 43z" />
    <glyph glyph-name="nine.sups" unicode="&#x2079;" horiz-adv-x="376" 
d="M182 654q31 0 59 29q-5 42 -23 59.5t-40 17.5q-19 0 -33 -12.5t-14 -40.5q0 -26 13.5 -39.5t37.5 -13.5zM85 536q14 -11 30 -18.5t36 -7.5q43 0 64 28t26 77q-36 -34 -84 -34q-57 0 -89.5 33t-32.5 90q0 30 10.5 55t29.5 43.5t44.5 29t54.5 10.5q40 0 71 -14.5t52 -41.5
t32 -65t11 -84q0 -47 -12.5 -85t-35.5 -66t-57 -43t-77 -15t-70.5 13t-44.5 28z" />
    <glyph glyph-name="parenleft.sups" unicode="&#x207d;" horiz-adv-x="268" 
d="M154 350q-22 33 -39 65t-28.5 66t-17.5 72t-6 83t6 82.5t17.5 71.5t28.5 66t39 65l79 -32q-68 -122 -68 -253q0 -68 17 -130t51 -124l-79 -32v0z" />
    <glyph glyph-name="parenright.sups" unicode="&#x207e;" horiz-adv-x="268" 
d="M35 382q34 62 51 124t17 130q0 131 -68 253l80 32q21 -33 38 -65t28.5 -66t17.5 -71.5t6 -82.5t-6 -83t-17.5 -72t-28.5 -66t-38 -65l-80 32v0z" />
    <glyph glyph-name="n.sups" unicode="&#x207f;" horiz-adv-x="384" 
d="M42 589h83l9 -43h2q20 20 46.5 35.5t59.5 15.5q57 0 80.5 -36.5t23.5 -98.5v-202h-104v190q0 30 -6.5 45t-32.5 15q-16 0 -29 -8t-28 -23v-219h-104v329z" />
    <glyph glyph-name="zero.subs" unicode="&#x2080;" horiz-adv-x="376" 
d="M188 -265q-35 0 -65 14t-51.5 41t-33.5 65.5t-12 87.5t12 87t33.5 64.5t51.5 40.5t65 14t65 -14t51.5 -40.5t34 -64.5t12.5 -87t-12.5 -87.5t-34 -65.5t-51.5 -41t-65 -14zM188 -183q25 0 42.5 28t17.5 98t-17.5 97t-42.5 27t-42.5 -27t-17.5 -97t17.5 -98t42.5 -28z" />
    <glyph glyph-name="one.subs" unicode="&#x2081;" horiz-adv-x="376" 
d="M165 28h-89v66q20 3 35.5 7t28.5 9t24.5 11.5t23.5 15.5h86v-390h-109v281z" />
    <glyph glyph-name="two.subs" unicode="&#x2082;" horiz-adv-x="376" 
d="M45 -195q75 62 123 109.5t48 84.5q0 29 -15 45t-42 16q-20 0 -37 -12.5t-34 -34.5l-61 56q60 80 149 80q65 0 104.5 -34.5t39.5 -97.5q0 -24 -8.5 -46.5t-23 -44.5t-33 -44t-39.5 -45h118v-90h-289v58z" />
    <glyph glyph-name="three.subs" unicode="&#x2083;" horiz-adv-x="376" 
d="M92 -135q35 -48 83 -48q23 0 39.5 12t16.5 35q0 51 -93 51v62q36 0 57.5 11.5t21.5 36.5q0 20 -13 31t-36 11q-19 0 -34.5 -11t-29.5 -28l-61 54q32 35 65 51t79 16q27 0 51.5 -7.5t43.5 -21.5t30 -34.5t11 -45.5q0 -31 -15 -52.5t-42 -37.5q30 -12 50.5 -35.5
t20.5 -58.5q0 -27 -12.5 -49.5t-33 -38t-48 -24.5t-57.5 -9q-51 0 -92 20.5t-67 58.5z" />
    <glyph glyph-name="four.subs" unicode="&#x2084;" horiz-adv-x="376" 
d="M214 -96v41l6 117h-4l-40 -77l-42 -81h80zM368 -166h-58v-87h-96v87h-179v54l141 249h134v-233h58v-70z" />
    <glyph glyph-name="five.subs" unicode="&#x2085;" horiz-adv-x="376" 
d="M92 -135q19 -25 38 -36.5t45 -11.5q25 0 41 17.5t16 41.5q0 29 -17.5 43.5t-41.5 14.5q-17 0 -30.5 -5.5t-27.5 -17.5l-46 32l17 194h236v-91h-151l-6 -54q13 3 25.5 4.5t20.5 1.5q26 0 49 -8.5t40.5 -25t27.5 -40t10 -53.5q0 -29 -11 -54t-31.5 -43t-48 -28.5
t-60.5 -10.5q-53 0 -93.5 20.5t-66.5 58.5z" />
    <glyph glyph-name="six.subs" unicode="&#x2086;" horiz-adv-x="376" 
d="M197 -183q19 0 33 12.5t14 40.5q0 53 -51 53q-30 0 -58 -28q5 -42 22.5 -60t39.5 -18zM291 41q-14 11 -30 18.5t-36 7.5q-43 0 -64 -28t-26 -77q36 34 83 34q57 0 89.5 -33t32.5 -90q0 -30 -10.5 -55t-29 -43.5t-44 -29t-54.5 -10.5q-80 0 -123 56t-43 149q0 46 12 84.5
t35.5 66.5t57 43t77.5 15q42 0 70 -13t45 -28z" />
    <glyph glyph-name="seven.subs" unicode="&#x2087;" horiz-adv-x="376" 
d="M117 -253q3 45 10.5 83t20.5 73.5t31.5 70t44.5 73.5h-174v90h294v-58q-33 -42 -54 -81t-33 -78t-17.5 -81.5t-8.5 -91.5h-114v0z" />
    <glyph glyph-name="eight.subs" unicode="&#x2088;" horiz-adv-x="376" 
d="M136 -143q0 -21 14.5 -35.5t37.5 -14.5q22 0 37 14t15 34q0 23 -20.5 34t-49.5 25q-34 -23 -34 -57zM204 -15q25 24 25 50q0 19 -12 29.5t-30 10.5q-17 0 -28.5 -10t-11.5 -26q0 -21 16.5 -32.5t40.5 -21.5zM38 -154q0 34 22.5 60t49.5 41v4q-26 18 -42 39.5t-16 51.5
q0 25 10.5 45t29 33.5t43.5 21t53 7.5q29 0 54 -7.5t43.5 -21t29 -33.5t10.5 -45q0 -28 -17.5 -50t-40.5 -36v-4q29 -16 49.5 -42t20.5 -63q0 -23 -11 -43.5t-31 -35.5t-47 -24t-60 -9t-60.5 9t-47.5 24t-31 35t-11 43z" />
    <glyph glyph-name="nine.subs" unicode="&#x2089;" horiz-adv-x="376" 
d="M182 -39q31 0 59 29q-5 42 -23 59.5t-40 17.5q-19 0 -33 -12.5t-14 -40.5q0 -26 13.5 -39.5t37.5 -13.5zM85 -157q14 -11 30 -18.5t36 -7.5q43 0 64 28t26 77q-36 -34 -84 -34q-57 0 -89.5 33t-32.5 90q0 30 10.5 55t29.5 43.5t44.5 29t54.5 10.5q40 0 71 -14.5t52 -41.5
t32 -65t11 -84q0 -47 -12.5 -85t-35.5 -66t-57 -43t-77 -15t-70.5 13t-44.5 28z" />
    <glyph glyph-name="parenleft.subs" unicode="&#x208d;" horiz-adv-x="268" 
d="M154 -343q-22 33 -39 65t-28.5 66t-17.5 72t-6 83t6 82.5t17.5 71.5t28.5 66t39 65l79 -32q-68 -122 -68 -253q0 -68 17 -130t51 -124l-79 -32v0z" />
    <glyph glyph-name="parenright.subs" unicode="&#x208e;" horiz-adv-x="268" 
d="M35 -311q34 62 51 124t17 130q0 131 -68 253l80 32q21 -33 38 -65t28.5 -66t17.5 -71.5t6 -82.5t-6 -83t-17.5 -72t-28.5 -66t-38 -65l-80 32v0z" />
    <glyph glyph-name="uni0259.sups" unicode="&#x2094;" horiz-adv-x="346" 
d="M164 252q-37 0 -64 13t-44.5 35t-26 51t-8.5 60q0 14 1.5 22.5t4.5 19.5h196q-12 65 -74 65q-19 0 -36 -4.5t-35 -15.5l-36 62q27 18 58.5 27.5t61.5 9.5q36 0 65.5 -12.5t50.5 -35t32.5 -54t11.5 -70.5q0 -40 -12.5 -72t-34.5 -54.5t-50.5 -34.5t-60.5 -12zM163 331
q24 0 40.5 15t20.5 48h-115q0 -26 12.5 -44.5t41.5 -18.5z" />
    <glyph glyph-name="colonmonetary" unicode="&#x20a1;" horiz-adv-x="528" 
d="M271 121q15 -11 38 -16l50 426q-5 1 -9.5 1.5t-9.5 0.5h-10t-10 -1zM267 510q-32 -25 -48.5 -73.5t-16.5 -117.5q0 -87 25 -143zM516 80q-35 -41 -77.5 -64t-93.5 -27l-12 -99h-50l12 99q-11 2 -20.5 3.5t-18.5 3.5l-13 -106h-50l15 123q-70 34 -112 109t-42 192
q0 69 16.5 125t46.5 97.5t72.5 68t93.5 36.5l12 104h50l-12 -98h11q8 0 14.5 -0.5t14.5 -1.5l12 100h50l-14 -113q26 -11 50 -29t44 -42l-81 -80q-14 15 -27 27l-48 -404q42 10 75 52z" />
    <glyph glyph-name="lira" unicode="&#x20a4;" horiz-adv-x="528" 
d="M238 124h259v-124h-449v91q39 17 67.5 49.5t36.5 76.5h-100v69l74 5h22q-3 12 -6.5 24t-7.5 24h-82v69l58 6h3q-3 13 -3 28q0 47 16 85t44.5 64.5t67.5 41t86 14.5q56 0 97.5 -21t75.5 -60l-80 -80q-17 21 -36 31.5t-43 10.5q-40 0 -63.5 -23t-23.5 -71v-10t1 -10h158
v-75h-142q3 -12 5.5 -24t4.5 -24h132v-74h-128q-4 -26 -14 -46.5t-30 -42.5v-4z" />
    <glyph glyph-name="uni20A6" unicode="&#x20a6;" horiz-adv-x="528" 
d="M353 342h-47l14 -48h37zM363 236h-27l36 -127h4zM175 294h47l-14 48h-37zM165 400h27l-36 126h-4zM455 342v-48h69v-58h-69v-236h-136l-80 236h-60v-236h-106v236h-70v52l70 6v48h-70v52l70 6v235h136l80 -235h60v235h106v-235h69v-58h-69z" />
    <glyph glyph-name="peseta" unicode="&#x20a7;" horiz-adv-x="528" 
d="M229 305q38 0 62 20t32 55h-119v-75h25zM204 543v-72h119q-9 38 -32.5 55t-61.5 17h-25zM519 380h-58q-7 -43 -27.5 -74.5t-50.5 -52.5t-67.5 -31t-78.5 -10h-33v-212h-139v380h-62v85l62 5v165h172q42 0 79.5 -8.5t67 -28t49.5 -51t27 -76.5h59v-91z" />
    <glyph glyph-name="dong" unicode="&#x20ab;" horiz-adv-x="528" 
d="M78 74h399v-74h-399v74zM323 360q-16 14 -30.5 20t-32.5 6q-27 0 -49 -21.5t-22 -59.5q0 -48 18 -70t49 -22q20 0 35 8t32 28v111zM517 602v-68l-73 -6v-402h-100l-9 36h-3q-20 -21 -47 -33.5t-59 -12.5q-74 0 -117.5 49t-43.5 141q0 42 14.5 75t37.5 56.5t53 35.5t60 12
q33 0 54.5 -9.5t42.5 -29.5l-4 67v15h-144v74h144v49h121v-49h73z" />
    </font>
</defs>
</svg>
